Subcategories

Buffy Sainte-Marie - Running For The Drum (2008) Reissue 2009

Posted By: Designol
Buffy Sainte-Marie - Running For The Drum (2008) Reissue 2009

Buffy Sainte-Marie - Running For The Drum (2008) Reissue 2009
EAC | FLAC | Tracks (Cue&Log) ~ 282 Mb | Mp3 (CBR320) ~ 99 Mb | Scans ~ 54 Mb
Contemporary Folk, Rock, Blues | Label: Cooking Vinyl | # COOKCD493 | 00:43:36

Buffy Sainte-Marie has always been a good deal more versatile as a musician than most people realize, roaming through folk, blues, country, pop, and even pioneering electronica on her various albums, always using her Cree ancestry as an anchor, and very few singers have dealt with cultural polemics as intelligently as she has. Perhaps because of her restless drive to try new forms, Sainte-Marie's albums are often woefully (but endearingly) erratic and inconsistent, but each contains hidden gems, and while her eerie, vibrato-laden singing style can sound affected at times, her drive to constantly pull her agenda into new musical territories is inspiring. Running for the Drum is her first new album in 17 years, and while it probably won't change anyone's attitudes about her work, it wonderfully spotlights all of the musical themes, forms, and concerns she's pursued in the past four decades. The album opens with a pair of Native American rockers, "No No Keshagesh" and "Cho Cho Fire," that draw on Native American drum rhythms, and both are fiery and invigorating. She revisits one of her finest early songs, the beautiful and haunting "Little Wheel Spin and Spin." She pays tribute to Elvis Presley and rockabilly with the fun "Blue Sunday," then tackles New Orleans with the chugging "I Bet My Heart on You," which includes a piano duet with Taj Mahal. Then there are the love songs – always one of Sainte-Marie's greatest strengths (her most famous songs, "Until It's Time for You to Go" and "Up Where We Belong," are both classic pop love songs, equal to any Tin Pan Alley/Brill Building creation). "When I Had You" is gorgeous and moving, as is "Easy Like the Snow Falls Down," a love song that expands to embrace the whole of life, including its end, with compassion and calm wisdom. Is this a great album that will change the world? No, it isn't. But it's a joy to hear, and it's comforting that Sainte-Marie is still writing amazing songs, taking firm social and political stands, performing with spirit, joy, and passion, and pretty much doing what she's always done. What makes this package even more of a delight is the DVD, A Multimedia Life, that is included. A documentary of Sainte-Marie's life featuring interviews with Joni Mitchell, Robbie Robertson, Randy Bachman, and Bill Cosby, among others, and several sessions with Sainte-Marie herself, it is the portrait of a determined, vibrant, intensely creative woman who is undeniably a true North American treasure. That her concerns and goals remain completely intact after all these years, to say nothing of her musical talent, is, again, very comforting. Hopefully we won't have to wait another 17 years for the next album.

Review by Steve Leggett, Allmusic.com

Buffy Sainte-Marie - Running For The Drum (2008) Reissue 2009



Tracklist:

01. No No Keshagesh (4:44)
02. Cho Cho Fire (3:06)
03. Working For The Government (3:34)
04. Little Wheel Spin And Spin (3:06)
05. Too Much Is Never Enough (3:59)
06. To The Ends Of The World (3:45)
07. When I Had You (4:12)
08. I Bet My Heart On You (3:26)
09. Blue Sunday (2:55)
10. Easy Like The Snow Falls Down (3:52)
11. America The Beautiful (3:01)
12. Still This Loves Goes On (3:55)


Exact Audio Copy V0.99 prebeta 5 from 4. May 2009

EAC extraction logfile from 11. November 2009, 20:41

Buffy Sainte-Marie / Running For The Drum

Used drive : LITE-ON DVDRW LH-20A1P Adapter: 0 ID: 0

Read mode : Secure
Utilize accurate stream : Yes
Defeat audio cache : Yes
Make use of C2 pointers : No

Read offset correction : 6
Overread into Lead-In and Lead-Out : No
Fill up missing offset samples with silence : Yes
Delete leading and trailing silent blocks : No
Null samples used in CRC calculations : Yes
Used interface : Native Win32 interface for Win NT & 2000
Gap handling : Appended to previous track

Used output format : User Defined Encoder
Selected bitrate : 768 kBit/s
Quality : High
Add ID3 tag : No
Command line compressor : C:\Program Files\Exact Audio Copy\Flac\flac.exe
Additional command line options : -V -8 -T "artist=%a" -T "title=%t" -T "album=%g" -T "date=%y" -T "tracknumber=%n" -T "genre=%m" %s


TOC of the extracted CD

Track | Start | Length | Start sector | End sector
––––––––––––––––––––––––––––-
1 | 0:00.00 | 4:44.14 | 0 | 21313
2 | 4:44.14 | 3:05.55 | 21314 | 35243
3 | 7:49.69 | 3:33.45 | 35244 | 51263
4 | 11:23.39 | 3:05.59 | 51264 | 65197
5 | 14:29.23 | 3:58.38 | 65198 | 83085
6 | 18:27.61 | 3:45.31 | 83086 | 99991
7 | 22:13.17 | 4:12.32 | 99992 | 118923
8 | 26:25.49 | 3:26.00 | 118924 | 134373
9 | 29:51.49 | 2:55.34 | 134374 | 147532
10 | 32:47.08 | 3:52.05 | 147533 | 164937
11 | 36:39.13 | 3:01.28 | 164938 | 178540
12 | 39:40.41 | 3:55.12 | 178541 | 196177


Track 1

Filename Q:\EAC\Buffy Sainte-Marie - 2008 - Running For The Drum\01 - No No Keshagesh.wav

Pre-gap length 0:00:02.00

Peak level 89.0 %
Track quality 100.0 %
Test CRC 55D7BB1C
Copy CRC 55D7BB1C
Track not present in AccurateRip database
Copy OK

Track 2

Filename Q:\EAC\Buffy Sainte-Marie - 2008 - Running For The Drum\02 - Cho Cho Fire.wav

Peak level 99.9 %
Track quality 100.0 %
Test CRC 95022D3C
Copy CRC 95022D3C
Track not present in AccurateRip database
Copy OK

Track 3

Filename Q:\EAC\Buffy Sainte-Marie - 2008 - Running For The Drum\03 - Working For The Government.wav

Pre-gap length 0:00:01.53

Peak level 100.0 %
Track quality 100.0 %
Test CRC 53375A74
Copy CRC 53375A74
Track not present in AccurateRip database
Copy OK

Track 4

Filename Q:\EAC\Buffy Sainte-Marie - 2008 - Running For The Drum\04 - Little Wheel Spin And Spin.wav

Peak level 94.2 %
Track quality 100.0 %
Test CRC 2B1A96B1
Copy CRC 2B1A96B1
Track not present in AccurateRip database
Copy OK

Track 5

Filename Q:\EAC\Buffy Sainte-Marie - 2008 - Running For The Drum\05 - Too Much Is Never Enough.wav

Peak level 100.0 %
Track quality 100.0 %
Test CRC 4EBA3652
Copy CRC 4EBA3652
Track not present in AccurateRip database
Copy OK

Track 6

Filename Q:\EAC\Buffy Sainte-Marie - 2008 - Running For The Drum\06 - To The Ends Of The World.wav

Peak level 100.0 %
Track quality 100.0 %
Test CRC 9C1647D2
Copy CRC 9C1647D2
Track not present in AccurateRip database
Copy OK

Track 7

Filename Q:\EAC\Buffy Sainte-Marie - 2008 - Running For The Drum\07 - When I Had You.wav

Pre-gap length 0:00:01.50

Peak level 79.3 %
Track quality 100.0 %
Test CRC 47750F60
Copy CRC 47750F60
Track not present in AccurateRip database
Copy OK

Track 8

Filename Q:\EAC\Buffy Sainte-Marie - 2008 - Running For The Drum\08 - I Bet My Heart On You.wav

Pre-gap length 0:00:01.40

Peak level 99.9 %
Track quality 100.0 %
Test CRC 0082DCA8
Copy CRC 0082DCA8
Track not present in AccurateRip database
Copy OK

Track 9

Filename Q:\EAC\Buffy Sainte-Marie - 2008 - Running For The Drum\09 - Blue Sunday.wav

Pre-gap length 0:00:02.48

Peak level 92.2 %
Track quality 100.0 %
Test CRC 85D49C87
Copy CRC 85D49C87
Track not present in AccurateRip database
Copy OK

Track 10

Filename Q:\EAC\Buffy Sainte-Marie - 2008 - Running For The Drum\10 - Easy Like The Snow Falls Down.wav

Pre-gap length 0:00:01.90

Peak level 89.0 %
Track quality 100.0 %
Test CRC 76519EE1
Copy CRC 76519EE1
Track not present in AccurateRip database
Copy OK

Track 11

Filename Q:\EAC\Buffy Sainte-Marie - 2008 - Running For The Drum\11 - America The Beautiful.wav

Peak level 89.0 %
Track quality 100.0 %
Test CRC 42614681
Copy CRC 42614681
Track not present in AccurateRip database
Copy OK

Track 12

Filename Q:\EAC\Buffy Sainte-Marie - 2008 - Running For The Drum\12 - Still This Loves Goes On.wav

Pre-gap length 0:00:01.81

Peak level 100.0 %
Track quality 100.0 %
Test CRC B366C61C
Copy CRC B366C61C
Track not present in AccurateRip database
Copy OK


None of the tracks are present in the AccurateRip database

No errors occurred

End of status report

[CUETools log; Date: 30.11.2018 9:46:04; Version: 2.1.4]
[CTDB TOCID: 5otYhUSi3c7YcEhAYdK7b7vvLQ0-] found.
Track | CTDB Status
1 | (18/18) Accurately ripped
2 | (18/18) Accurately ripped
3 | (18/18) Accurately ripped
4 | (18/18) Accurately ripped
5 | (18/18) Accurately ripped
6 | (18/18) Accurately ripped
7 | (18/18) Accurately ripped
8 | (18/18) Accurately ripped
9 | (18/18) Accurately ripped
10 | (18/18) Accurately ripped
11 | (18/18) Accurately ripped
12 | (18/18) Accurately ripped
[AccurateRip ID: 0013c8ca-00b76d57-ae0a370c] found.
Track [ CRC | V2 ] Status
01 [cdaff49c|18aa3b25] (04+00/12) Accurately ripped
02 [4480fea6|09e1aab6] (04+00/12) Accurately ripped
03 [5f76f271|530f3f25] (03+00/11) Accurately ripped
04 [454883b5|5eb95371] (03+00/11) Accurately ripped
05 [c752cfea|47daa710] (04+00/12) Accurately ripped
06 [872c306c|f52fb391] (03+00/11) Accurately ripped
07 [abd67eac|1ba333b4] (03+00/11) Accurately ripped
08 [ce8c9b39|494447d8] (03+00/11) Accurately ripped
09 [c2504f6e|99426b28] (03+00/11) Accurately ripped
10 [00cd5ea4|e1f0f55b] (03+00/11) Accurately ripped
11 [fb210a9e|211a2814] (03+00/11) Accurately ripped
12 [3e3501f7|12e0d103] (03+00/11) Accurately ripped
Offsetted by -30:
01 [6909d013] (04/12) Accurately ripped
02 [5538faf9] (04/12) Accurately ripped
03 [9a333652] (04/11) Accurately ripped
04 [84aa8a7b] (04/11) Accurately ripped
05 [a7c213fd] (04/12) Accurately ripped
06 [541b18b2] (04/11) Accurately ripped
07 [0d4dde88] (04/11) Accurately ripped
08 [35f38c83] (04/11) Accurately ripped
09 [a5ee2bb4] (04/11) Accurately ripped
10 [28720560] (04/11) Accurately ripped
11 [1e9ffce0] (04/11) Accurately ripped
12 [a7ff73c9] (04/11) Accurately ripped
Offsetted by -48:
01 [1f05588e] (00/12) No match (V2 was not tested)
02 [2d2a5de4] (00/12) No match (V2 was not tested)
03 [9aede4a1] (00/11) No match (V2 was not tested)
04 [31c48831] (00/11) No match (V2 was not tested)
05 [61c607fe] (00/12) No match (V2 was not tested)
06 [68aa70dc] (00/11) No match (V2 was not tested)
07 [ae2f180c] (00/11) No match (V2 was not tested)
08 [73fe1d49] (00/11) No match (V2 was not tested)
09 [c819afde] (00/11) No match (V2 was not tested)
10 [53910959] (00/11) No match (V2 was not tested)
11 [9571c2f5] (00/11) No match (V2 was not tested)
12 [e778eb47] (00/11) No match (V2 was not tested)

Track Peak [ CRC32 ] [W/O NULL] [ LOG ]
– 100,0 [CC0A72CE] [CBD3F91E]
01 89,0 [55D7BB1C] [B768C88C] CRC32
02 99,9 [95022D3C] [2F1BEC6E] CRC32
03 100,0 [53375A74] [E4970538] CRC32
04 94,2 [2B1A96B1] [8F8EFDFF] CRC32
05 100,0 [4EBA3652] [D72712B6] CRC32
06 100,0 [9C1647D2] [A98A0A16] CRC32
07 79,3 [47750F60] [4AD43A3D] CRC32
08 99,9 [0082DCA8] [EA907413] CRC32
09 92,2 [85D49C87] [2FEEDCAE] CRC32
10 89,0 [76519EE1] [DAFA3810] CRC32
11 89,0 [42614681] [8A5207DA] CRC32
12 100,0 [B366C61C] [13538F51] CRC32

foobar2000 1.2 / Dynamic Range Meter 1.1.1
log date: 2018-11-30 09:20:05

––––––––––––––––––––––––––––––––––––––––
Analyzed: Buffy Sainte-Marie / Running For The Drum
––––––––––––––––––––––––––––––––––––––––

DR Peak RMS Duration Track
––––––––––––––––––––––––––––––––––––––––
DR4 -1.00 dB -6.24 dB 4:44 01-No No Keshagesh
DR6 -0.01 dB -6.97 dB 3:06 02-Cho Cho Fire
DR5 0.00 dB -5.71 dB 3:34 03-Working For The Government
DR6 -0.52 dB -9.34 dB 3:06 04-Little Wheel Spin And Spin
DR7 0.00 dB -8.20 dB 3:59 05-Too Much Is Never Enough
DR6 0.00 dB -7.42 dB 3:45 06-To The Ends Of The World
DR5 -2.01 dB -8.48 dB 4:12 07-When I Had You
DR6 0.00 dB -6.45 dB 3:26 08-I Bet My Heart On You
DR5 -0.70 dB -6.76 dB 2:55 09-Blue Sunday
DR5 -1.00 dB -6.51 dB 3:52 10-Easy Like The Snow Falls Down
DR5 -1.00 dB -7.05 dB 3:01 11-America The Beautiful
DR7 0.00 dB -8.58 dB 3:55 12-Still This Loves Goes On
––––––––––––––––––––––––––––––––––––––––

Number of tracks: 12
Official DR value: DR6

Samplerate: 44100 Hz
Channels: 2
Bits per sample: 16
Bitrate: 862 kbps
Codec: FLAC
================================================================================

Buffy Sainte-Marie - Running For The Drum (2008) Reissue 2009

All thanks to original releaser

More interesting music in My Blog