Subcategories

C.C. Catch: Singles Collection (1988 - 2004)

Posted By: v3122
C.C. Catch: Singles Collection (1988 - 2004)

C.C. Catch: Singles Collection (1988 - 2004)
EAC | Flac(Image) + Cue + Log & MP3 CBR 320Kbps
Esoteric Antenna, EANT21038 | ~ 1254 or 502 Mb | Scans(jpg) -> 167 Mb
Disco, Synth-pop, Euro House

Born Caroline Catharina Müller in the Netherlands, she moved with her family to Germany in the late '70s. In 1980, she became a member of the girl quartet Optimal, who issued two singles. During one of the band's concerts in Hamburg, she was approached by songwriter/producer Dieter Bohlen who had just taken the continental charts by storm with his duo Modern Talking. She signed up with Bohlen who then changed her stage name to C.C. Catch, and the debut single of the newly christened singer – "I Can Lose My Heart Tonight" – was released in the summer of 1985.

Her collaboration with Bohlen lasted until 1989, resulted in four albums and 12 singles, and made C.C. Catch a queen of continental discos. However, the artist felt that she was largely perceived as a female version of Bohlen's own band Modern Talking, and she wanted to diversify her repertoire by contributing her own material. After Bohlen denied her request, the singer decided not to renew the contract with her producer and Hansa Records. She subsequently won in court the right to use the name C.C. Catch and her first album without Bohlen – tellingly titled Hear What I Say – came out in the end of 1989. Produced in London by Andy Taylor, Dave Clayton, and Jo Dworniak, it was markedly different in style from her previous releases and contained seven songs co-written by the artist herself. The album was only a moderate success, possibly because the public had a hard time accepting her drastic change of style. C.C. Catch's former label Hansa might have also contributed to that situation, by simultaneously issuing a compilation of her Bohlen-produced hits. Subsequently, C.C. Catch retired from the music business, became interested in meditation, and married a yoga teacher in London. However, she agreed to collaborate on the 1998 collection of her greatest hits and reportedly began working on a new album.

by Yuri German, allmusic
C.C. Catch: Singles Collection (1988 - 2004):

C.C. Catch: Singles Collection (1988 - 2004)

Tracklist CD1 - 1988. Backseat Of Your Cadillac:
Hansa, 661 700

01.Backseat Of Your Cadillac (5:23)
02.Backseat Of Your Cadillac (Instrumental Mix) (3:17)
03.House Of Mystic Lights (Long Version Dance Mix) (4:11)
04.Backseat Of Your Cadillac (Radio Mix) (3:25)

Exact Audio Copy V0.99 prebeta 5 from 4. May 2009

Отчёт EAC об извлечении, выполненном 31. октября 2009, 12:28

C.C. Catch / Backseat Of Your Cadillac

Дисковод: ASUS DRW-2014S1T Adapter: 1 ID: 0

Режим чтения : Достоверность
Использование точного потока : Да
Отключение кэша аудио : Да
Использование указателей C2 : Нет

Коррекция смещения при чтении : 6
Способность читать области Lead-in и Lead-out : Нет
Заполнение пропущенных сэмплов тишиной : Да
Удаление блоков с тишиной в начале и конце : Нет
При вычислениях CRC использовались нулевые сэмплы : Да
Интерфейс : Установленный внешний ASPI-интерфейс

Выходной формат : Внутренние WAV-операции
Формат сэмплов : 44.100 Гц; 16 бит; стерео


TOC извлечённого CD

Трек | Старт | Длительность | Начальный сектор | Конечный сектор
––––––––––––––––––––––––––––––––––-
1 | 0:00.33 | 5:22.70 | 33 | 24252
2 | 5:23.28 | 3:17.27 | 24253 | 39054
3 | 8:40.55 | 4:11.30 | 39055 | 57909
4 | 12:52.10 | 3:24.50 | 57910 | 73259


Характеристики диапазона извлечения и сообщения об ошибках

Выбранный диапазон

Имя файла Z:\Temp\C.C. Catch - Backseat Of Your Cadillac.wav

Пиковый уровень 99.2 %
Качество диапазона 100.0 %
CRC теста DD0BDC5F
CRC копии DD0BDC5F
Копирование… OK

Ошибок не произошло


AccurateRip: сводка

Трек 1 нет в базе данных
Трек 2 нет в базе данных
Трек 3 нет в базе данных
Трек 4 нет в базе данных

Ни одного трека нет в базе AccurateRip

Конец отчёта


C.C. Catch: Singles Collection (1988 - 2004)

Tracklist CD2 - 1989. Baby I Need Your Love:
Hansa, 662 478

01.Baby I Need Your Love (Long Version) (4:48)
02.Night In Africa (4:09)
03.Baby I Need Your Love (3:02)

Exact Audio Copy V0.99 prebeta 5 from 4. May 2009

Отчёт EAC об извлечении, выполненном 31. октября 2009, 12:56

C.C. Catch / Baby I Need Your Love

Дисковод: ASUS DRW-2014S1T Adapter: 1 ID: 0

Режим чтения : Достоверность
Использование точного потока : Да
Отключение кэша аудио : Да
Использование указателей C2 : Нет

Коррекция смещения при чтении : 6
Способность читать области Lead-in и Lead-out : Нет
Заполнение пропущенных сэмплов тишиной : Да
Удаление блоков с тишиной в начале и конце : Нет
При вычислениях CRC использовались нулевые сэмплы : Да
Интерфейс : Установленный внешний ASPI-интерфейс

Выходной формат : Внутренние WAV-операции
Формат сэмплов : 44.100 Гц; 16 бит; стерео


TOC извлечённого CD

Трек | Старт | Длительность | Начальный сектор | Конечный сектор
––––––––––––––––––––––––––––––––––-
1 | 0:00.38 | 4:47.55 | 38 | 21617
2 | 4:48.18 | 4:08.50 | 21618 | 40267
3 | 8:56.68 | 3:02.25 | 40268 | 53942


Характеристики диапазона извлечения и сообщения об ошибках

Выбранный диапазон

Имя файла Z:\Temp\C.C. Catch - Baby I Need Your Love.wav

Пиковый уровень 100.0 %
Качество диапазона 99.9 %
CRC теста 6309939E
CRC копии 6309939E
Копирование… OK

Ошибок не произошло


AccurateRip: сводка

Трек 1 нет в базе данных
Трек 2 нет в базе данных
Трек 3 нет в базе данных

Ни одного трека нет в базе AccurateRip

Конец отчёта


C.C. Catch: Singles Collection (1988 - 2004)

Tracklist CD3 - 1989. Big Time (3''):
Metronome, 889 892-3

01.Big Time (3:49)
02.Feels Like Heaven (5:15)

Exact Audio Copy V0.99 prebeta 5 from 4. May 2009

Отчёт EAC об извлечении, выполненном 31. октября 2009, 16:44

C.C. Catch / Big Time

Дисковод: ASUS DRW-2014S1T Adapter: 1 ID: 0

Режим чтения : Достоверность
Использование точного потока : Да
Отключение кэша аудио : Да
Использование указателей C2 : Нет

Коррекция смещения при чтении : 6
Способность читать области Lead-in и Lead-out : Нет
Заполнение пропущенных сэмплов тишиной : Да
Удаление блоков с тишиной в начале и конце : Нет
При вычислениях CRC использовались нулевые сэмплы : Да
Интерфейс : Установленный внешний ASPI-интерфейс

Выходной формат : Внутренние WAV-операции
Формат сэмплов : 44.100 Гц; 16 бит; стерео


TOC извлечённого CD

Трек | Старт | Длительность | Начальный сектор | Конечный сектор
––––––––––––––––––––––––––––––––––-
1 | 0:00.33 | 3:48.60 | 33 | 17192
2 | 3:49.18 | 5:14.47 | 17193 | 40789


Характеристики диапазона извлечения и сообщения об ошибках

Выбранный диапазон

Имя файла Z:\Temp\C.C. Catch - Big Time.wav

Пиковый уровень 79.5 %
Качество диапазона 100.0 %
CRC теста 90CAB050
CRC копии 90CAB050
Копирование… OK

Ошибок не произошло


AccurateRip: сводка

Трек 1 нет в базе данных
Трек 2 нет в базе данных

Ни одного трека нет в базе AccurateRip

Конец отчёта


C.C. Catch: Singles Collection (1988 - 2004)

Tracklist CD4 - 1989. Big Time:
Metronome, 889 893-2

01.Big Time (Remix) (6:48)
02.Feels Like Heaven (5:18)
03.Big Time (Radio Version) (3:48)

Exact Audio Copy V0.99 prebeta 5 from 4. May 2009

Отчёт EAC об извлечении, выполненном 31. октября 2009, 13:52

C.C. Catch / Big Time

Дисковод: ASUS DRW-2014S1T Adapter: 1 ID: 0

Режим чтения : Достоверность
Использование точного потока : Да
Отключение кэша аудио : Да
Использование указателей C2 : Нет

Коррекция смещения при чтении : 6
Способность читать области Lead-in и Lead-out : Нет
Заполнение пропущенных сэмплов тишиной : Да
Удаление блоков с тишиной в начале и конце : Нет
При вычислениях CRC использовались нулевые сэмплы : Да
Интерфейс : Установленный внешний ASPI-интерфейс

Выходной формат : Внутренние WAV-операции
Формат сэмплов : 44.100 Гц; 16 бит; стерео


TOC извлечённого CD

Трек | Старт | Длительность | Начальный сектор | Конечный сектор
––––––––––––––––––––––––––––––––––-
1 | 0:00.33 | 6:47.62 | 33 | 30619
2 | 6:48.20 | 5:17.38 | 30620 | 54432
3 | 12:05.58 | 3:47.60 | 54433 | 71517


Характеристики диапазона извлечения и сообщения об ошибках

Выбранный диапазон

Имя файла Z:\Temp\C.C. Catch - Big Time.wav

Пиковый уровень 81.2 %
Качество диапазона 100.0 %
CRC теста 12560671
CRC копии 12560671
Копирование… OK

Ошибок не произошло


AccurateRip: сводка

Трек 1 нет в базе данных
Трек 2 нет в базе данных
Трек 3 нет в базе данных

Ни одного трека нет в базе AccurateRip

Конец отчёта


C.C. Catch: Singles Collection (1988 - 2004)

Tracklist CD5 - 1989. Good Guys Only Win In Movies:
Hansa, 662 807

01.Good Guys Only Win In Movies (Extended Version) (5:45)
02.Are You Serious (3:09)
03.Good Guys Only Win In Movies (Radio Version) (3:51)

Exact Audio Copy V0.99 prebeta 5 from 4. May 2009

Отчёт EAC об извлечении, выполненном 31. октября 2009, 16:57

C.C. Catch / Good Guys Only Win In Movies

Дисковод: ASUS DRW-2014S1T Adapter: 1 ID: 0

Режим чтения : Достоверность
Использование точного потока : Да
Отключение кэша аудио : Да
Использование указателей C2 : Нет

Коррекция смещения при чтении : 6
Способность читать области Lead-in и Lead-out : Нет
Заполнение пропущенных сэмплов тишиной : Да
Удаление блоков с тишиной в начале и конце : Нет
При вычислениях CRC использовались нулевые сэмплы : Да
Интерфейс : Установленный внешний ASPI-интерфейс

Выходной формат : Внутренние WAV-операции
Формат сэмплов : 44.100 Гц; 16 бит; стерео


TOC извлечённого CD

Трек | Старт | Длительность | Начальный сектор | Конечный сектор
––––––––––––––––––––––––––––––––––-
1 | 0:00.32 | 5:45.20 | 32 | 25926
2 | 5:45.52 | 3:08.50 | 25927 | 40076
3 | 8:54.27 | 3:51.30 | 40077 | 57431


Характеристики диапазона извлечения и сообщения об ошибках

Выбранный диапазон

Имя файла Z:\Temp\C.C. Catch - Good Guys Only Win In Movies.wav

Пиковый уровень 97.9 %
Качество диапазона 99.9 %
CRC теста 186AD111
CRC копии 186AD111
Копирование… OK

Ошибок не произошло


AccurateRip: сводка

Трек 1 нет в базе данных
Трек 2 нет в базе данных
Трек 3 нет в базе данных

Ни одного трека нет в базе AccurateRip

Конец отчёта


C.C. Catch: Singles Collection (1988 - 2004)

Tracklist CD6 - 1989. Midnight Hour:
Metronome, 873 587-2

01.Midnight Hour (6:59)
02.Midnight Hour (Dub Version) (7:08)
03.Midnight Hour (7'' Version) (3:58)

Exact Audio Copy V0.99 prebeta 5 from 4. May 2009

Отчёт EAC об извлечении, выполненном 31. октября 2009, 17:04

C.C. Catch / Midnight Hour

Дисковод: ASUS DRW-2014S1T Adapter: 1 ID: 0

Режим чтения : Достоверность
Использование точного потока : Да
Отключение кэша аудио : Да
Использование указателей C2 : Нет

Коррекция смещения при чтении : 6
Способность читать области Lead-in и Lead-out : Нет
Заполнение пропущенных сэмплов тишиной : Да
Удаление блоков с тишиной в начале и конце : Нет
При вычислениях CRC использовались нулевые сэмплы : Да
Интерфейс : Установленный внешний ASPI-интерфейс

Выходной формат : Внутренние WAV-операции
Формат сэмплов : 44.100 Гц; 16 бит; стерео


TOC извлечённого CD

Трек | Старт | Длительность | Начальный сектор | Конечный сектор
––––––––––––––––––––––––––––––––––-
1 | 0:00.33 | 6:58.65 | 33 | 31447
2 | 6:59.23 | 7:07.45 | 31448 | 63517
3 | 14:06.68 | 3:58.00 | 63518 | 81367


Характеристики диапазона извлечения и сообщения об ошибках

Выбранный диапазон

Имя файла Z:\Temp\C.C. Catch - Midnight Hour.wav

Пиковый уровень 95.9 %
Качество диапазона 100.0 %
CRC теста 8D758FB2
CRC копии 8D758FB2
Копирование… OK

Ошибок не произошло


AccurateRip: сводка

Трек 1 нет в базе данных
Трек 2 нет в базе данных
Трек 3 нет в базе данных

Ни одного трека нет в базе AccurateRip

Конец отчёта


C.C. Catch: Singles Collection (1988 - 2004)

Tracklist CD7 - 1989. Nothing But A Heartache:
Hansa, 662 032

01.Nothing But A Heartache (5:07)
02.Little By Little (3:08)
03.Heartbeat City (Maxi Mix) (4:56)
04.Nothing But A Heartache (Radio Mix) (2:59)

Exact Audio Copy V0.99 prebeta 5 from 4. May 2009

Отчёт EAC об извлечении, выполненном 31. октября 2009, 18:41

C.C. Catch / Nothing But A Heartache

Дисковод: ASUS DRW-2014S1T Adapter: 1 ID: 0

Режим чтения : Достоверность
Использование точного потока : Да
Отключение кэша аудио : Да
Использование указателей C2 : Нет

Коррекция смещения при чтении : 6
Способность читать области Lead-in и Lead-out : Нет
Заполнение пропущенных сэмплов тишиной : Да
Удаление блоков с тишиной в начале и конце : Нет
При вычислениях CRC использовались нулевые сэмплы : Да
Интерфейс : Установленный внешний ASPI-интерфейс

Выходной формат : Внутренние WAV-операции
Формат сэмплов : 44.100 Гц; 16 бит; стерео


TOC извлечённого CD

Трек | Старт | Длительность | Начальный сектор | Конечный сектор
––––––––––––––––––––––––––––––––––-
1 | 0:00.00 | 5:07.07 | 0 | 23031
2 | 5:07.07 | 3:08.13 | 23032 | 37144
3 | 8:15.20 | 4:56.12 | 37145 | 59356
4 | 13:11.32 | 2:59.18 | 59357 | 72799


Характеристики диапазона извлечения и сообщения об ошибках

Выбранный диапазон

Имя файла Z:\Temp\C.C. Catch - Nothing But A Heartache.wav

Пиковый уровень 99.6 %
Качество диапазона 100.0 %
CRC теста 823D8ED3
CRC копии 823D8ED3
Копирование… OK

Ошибок не произошло


AccurateRip: сводка

Трек 1 нет в базе данных
Трек 2 нет в базе данных
Трек 3 нет в базе данных
Трек 4 нет в базе данных

Ни одного трека нет в базе AccurateRip

Конец отчёта


C.C. Catch: Singles Collection (1988 - 2004)

Tracklist CD8 - 1989. Summer Kisses:
Hansa, 662 322

01.Summer Kisses (6:13)
02.If I Feel Love (3:42)
03.Summer Kisses (Radio Version) (3:51)

Exact Audio Copy V0.99 prebeta 5 from 4. May 2009

Отчёт EAC об извлечении, выполненном 31. октября 2009, 18:55

C.C. Catch / Summer Kisses

Дисковод: ASUS DRW-2014S1T Adapter: 1 ID: 0

Режим чтения : Достоверность
Использование точного потока : Да
Отключение кэша аудио : Да
Использование указателей C2 : Нет

Коррекция смещения при чтении : 6
Способность читать области Lead-in и Lead-out : Нет
Заполнение пропущенных сэмплов тишиной : Да
Удаление блоков с тишиной в начале и конце : Нет
При вычислениях CRC использовались нулевые сэмплы : Да
Интерфейс : Установленный внешний ASPI-интерфейс

Выходной формат : Внутренние WAV-операции
Формат сэмплов : 44.100 Гц; 16 бит; стерео


TOC извлечённого CD

Трек | Старт | Длительность | Начальный сектор | Конечный сектор
––––––––––––––––––––––––––––––––––-
1 | 0:00.33 | 6:12.50 | 33 | 27982
2 | 6:13.08 | 3:41.72 | 27983 | 44629
3 | 9:55.05 | 3:50.55 | 44630 | 61934


Характеристики диапазона извлечения и сообщения об ошибках

Выбранный диапазон

Имя файла Z:\Temp\C.C. Catch - Summer Kisses.wav

Пиковый уровень 93.0 %
Качество диапазона 100.0 %
CRC теста 6FD65F81
CRC копии 6FD65F81
Копирование… OK

Ошибок не произошло


AccurateRip: сводка

Трек 1 нет в базе данных
Трек 2 нет в базе данных
Трек 3 нет в базе данных

Ни одного трека нет в базе AccurateRip

Конец отчёта


C.C. Catch: Singles Collection (1988 - 2004)

Tracklist CD9 - 1998.I Can Lose My Heart Tonight '99 (feat. Krayzee):
BMG, 74321 63326-2

01.I Can Lose My Heart Tonight '99 (Rap Version) (3:14)
02.I Can Lose My Heart Tonight '99 (New Vocal Version) (3:31)
03.Soul Survivor '99 (New Vocal Version) (3:38)

Exact Audio Copy V0.99 prebeta 5 from 4. May 2009

Отчёт EAC об извлечении, выполненном 31. октября 2009, 23:23

C.C. Catch feat. Krayzee / I Can Lose My Heart Tonight '99

Дисковод: ASUS DRW-2014S1T Adapter: 1 ID: 0

Режим чтения : Достоверность
Использование точного потока : Да
Отключение кэша аудио : Да
Использование указателей C2 : Нет

Коррекция смещения при чтении : 6
Способность читать области Lead-in и Lead-out : Нет
Заполнение пропущенных сэмплов тишиной : Да
Удаление блоков с тишиной в начале и конце : Нет
При вычислениях CRC использовались нулевые сэмплы : Да
Интерфейс : Установленный внешний ASPI-интерфейс

Выходной формат : Внутренние WAV-операции
Формат сэмплов : 44.100 Гц; 16 бит; стерео


TOC извлечённого CD

Трек | Старт | Длительность | Начальный сектор | Конечный сектор
––––––––––––––––––––––––––––––––––-
1 | 0:00.32 | 3:14.00 | 32 | 14581
2 | 3:14.32 | 3:31.18 | 14582 | 30424
3 | 6:45.50 | 3:38.07 | 30425 | 46781


Характеристики диапазона извлечения и сообщения об ошибках

Выбранный диапазон

Имя файла Z:\Temp\C.C. Catch feat. Krayzee - I Can Lose My Heart Tonight '99.wav

Пиковый уровень 99.3 %
Качество диапазона 100.0 %
CRC теста B5D5F068
CRC копии B5D5F068
Копирование… OK

Ошибок не произошло


AccurateRip: сводка

Трек 1 нет в базе данных
Трек 2 нет в базе данных
Трек 3 нет в базе данных

Ни одного трека нет в базе AccurateRip

Конец отчёта


C.C. Catch: Singles Collection (1988 - 2004)

Tracklist CD10 - 1998. Megamix '98:
BMG, 74321 61803 2

01.C.C. Catch Megamix '98 (Short Version) (4:58)
02.C.C. Catch Megamix '98 (Long Version) (8:02)
03.Soul Survivor ('98 Rap Version) (3:03)

Exact Audio Copy V0.99 prebeta 5 from 4. May 2009

Отчёт EAC об извлечении, выполненном 31. октября 2009, 23:42

C.C. Catch feat. Krayzee / Megamix '98

Дисковод: ASUS DRW-2014S1T Adapter: 1 ID: 0

Режим чтения : Достоверность
Использование точного потока : Да
Отключение кэша аудио : Да
Использование указателей C2 : Нет

Коррекция смещения при чтении : 6
Способность читать области Lead-in и Lead-out : Нет
Заполнение пропущенных сэмплов тишиной : Да
Удаление блоков с тишиной в начале и конце : Нет
При вычислениях CRC использовались нулевые сэмплы : Да
Интерфейс : Установленный внешний ASPI-интерфейс

Выходной формат : Внутренние WAV-операции
Формат сэмплов : 44.100 Гц; 16 бит; стерео


TOC извлечённого CD

Трек | Старт | Длительность | Начальный сектор | Конечный сектор
––––––––––––––––––––––––––––––––––-
1 | 0:00.32 | 4:57.50 | 32 | 22356
2 | 4:58.07 | 8:01.38 | 22357 | 58469
3 | 12:59.45 | 3:03.12 | 58470 | 72206


Характеристики диапазона извлечения и сообщения об ошибках

Выбранный диапазон

Имя файла Z:\Temp\C.C. Catch feat. Krayzee - Megamix '98.wav

Пиковый уровень 99.3 %
Качество диапазона 100.0 %
CRC теста AC562984
CRC копии AC562984
Копирование… OK

Ошибок не произошло


AccurateRip: сводка

Трек 1 точное извлечение (доверие 4) [B7A7B774]
Трек 2 точное извлечение (доверие 4) [A5207B4F]
Трек 3 точное извлечение (доверие 4) [5E9F7B97]

Все треки извлечены точно

Конец отчёта


C.C. Catch: Singles Collection (1988 - 2004)

Tracklist CD11 - 2003. Shake Your Head 2003:
Vale Music, VLCDMX 1360-4

01.Shake Your Head 2003 (Radio Edit) (3:32)
02.Shake Your Head 2003 (Extended Club Mix) (5:43)
03.Shake Your Head 2003 (Electric Space Mix) (4:40)
04.How Does It Feel (2:44)
05.Spring (3:13)

Exact Audio Copy V0.99 prebeta 5 from 4. May 2009

Отчёт EAC об извлечении, выполненном 1. ноября 2009, 0:44

C.C. Catch / Shake Your Head 2003

Дисковод: ASUS DRW-2014S1T Adapter: 1 ID: 0

Режим чтения : Достоверность
Использование точного потока : Да
Отключение кэша аудио : Да
Использование указателей C2 : Нет

Коррекция смещения при чтении : 6
Способность читать области Lead-in и Lead-out : Нет
Заполнение пропущенных сэмплов тишиной : Да
Удаление блоков с тишиной в начале и конце : Нет
При вычислениях CRC использовались нулевые сэмплы : Да
Интерфейс : Установленный внешний ASPI-интерфейс

Выходной формат : Внутренние WAV-операции
Формат сэмплов : 44.100 Гц; 16 бит; стерео


TOC извлечённого CD

Трек | Старт | Длительность | Начальный сектор | Конечный сектор
––––––––––––––––––––––––––––––––––-
1 | 0:00.00 | 3:31.45 | 0 | 15869
2 | 3:31.45 | 5:42.66 | 15870 | 41585
3 | 9:14.36 | 4:39.47 | 41586 | 62557
4 | 13:54.08 | 2:43.46 | 62558 | 74828
5 | 16:37.54 | 3:13.06 | 74829 | 89309


Характеристики диапазона извлечения и сообщения об ошибках

Выбранный диапазон

Имя файла Z:\Temp\C.C. Catch - Shake Your Head 2003.wav

Пиковый уровень 98.8 %
Качество диапазона 99.9 %
CRC теста 3D25B79E
CRC копии 3D25B79E
Копирование… OK

Ошибок не произошло


AccurateRip: сводка

Трек 1 нет в базе данных
Трек 2 нет в базе данных
Трек 3 нет в базе данных
Трек 4 нет в базе данных
Трек 5 нет в базе данных

Ни одного трека нет в базе AccurateRip

Конец отчёта


C.C. Catch: Singles Collection (1988 - 2004)

Tracklist CD12 - 2004. Silence (feat. Leela):
Danny Records, 42 6007748 001

01.Silence (Radio Mix) (3:33)
02.Silence (Live-Vibe Mix) (3:29)
03.Silence (DJ Jones-Club Mix) (3:32)
04.Silence (Dub-Star Remix) (3:35)
05.Silence (Instrumental) (3:31)

Exact Audio Copy V0.99 prebeta 5 from 4. May 2009

Отчёт EAC об извлечении, выполненном 1. ноября 2009, 1:23

C.C. Catch feat. Leela / Silence

Дисковод: ASUS DRW-2014S1T Adapter: 1 ID: 0

Режим чтения : Достоверность
Использование точного потока : Да
Отключение кэша аудио : Да
Использование указателей C2 : Нет

Коррекция смещения при чтении : 6
Способность читать области Lead-in и Lead-out : Нет
Заполнение пропущенных сэмплов тишиной : Да
Удаление блоков с тишиной в начале и конце : Нет
При вычислениях CRC использовались нулевые сэмплы : Да
Интерфейс : Установленный внешний ASPI-интерфейс

Выходной формат : Внутренние WAV-операции
Формат сэмплов : 44.100 Гц; 16 бит; стерео


TOC извлечённого CD

Трек | Старт | Длительность | Начальный сектор | Конечный сектор
––––––––––––––––––––––––––––––––––-
1 | 0:00.00 | 3:32.61 | 0 | 15960
2 | 3:32.61 | 3:29.00 | 15961 | 31635
3 | 7:01.61 | 3:32.04 | 31636 | 47539
4 | 10:33.65 | 3:34.72 | 47540 | 63661
5 | 14:08.62 | 3:30.61 | 63662 | 79472


Характеристики диапазона извлечения и сообщения об ошибках

Выбранный диапазон

Имя файла Z:\Temp\C.C. Catch feat. Leela - Silence.wav

Пиковый уровень 100.0 %
Качество диапазона 99.9 %
CRC теста 1CBDF9F6
CRC копии 1CBDF9F6
Копирование… OK

Ошибок не произошло


AccurateRip: сводка

Трек 1 нет в базе данных
Трек 2 нет в базе данных
Трек 3 нет в базе данных
Трек 4 нет в базе данных
Трек 5 нет в базе данных

Ни одного трека нет в базе AccurateRip

Конец отчёта


All thanks go to the original releasers

C.C.Catch or C.C.Catch in my Blog

Download C.C. Catch: Singles Collection (1988 - 2004):