Subcategories

Coldcut - What's That Noise? (1989) {Tommy Boy/Reprise}

Posted By: TestTickles
Coldcut - What's That Noise? (1989) {Tommy Boy/Reprise}

Coldcut - What's That Noise? (1989) {Tommy Boy/Reprise}
EAC Rip | FLAC with CUE and log | scans | 382 mb
MP3 CBR 320kbps | RAR | 143 mb
Genre: electronic, sample-based, R&B, soul, hip-hop, rap, dance, club

What's That Noise? is the 1989 debut album by British electronic musicians and producers Coldcut, who consist of Matt Black and Jonathan More. This features the singles "Stop This Crazy Thing", "My Telephone", "Find A Way" and the hit song "People Hold On", which marked the debut of British soul vocalist Lisa Stansfield. This was released by Tommy Boy Records via Reprise.

NOTE: I was made aware that the original links did not feature scans of the booklet or disc. If you downloaded the CD, you may find the links by clicking here. Otherwise, the links below have been upgraded and updated, they do have the scans I created but placed elsewhere before.


01. People Hold On
02. Fat (Party And Bullshit)
03. (I'm) In Deep
04. My Telephone
05. Theme From "Reportage"
06. Which Doctor
07. Stop This Crazy Thing
08. No Connection
09. Smoke Dis One
10. Not Paid Enough
11. What's That Noise
12. Beats & Pieces (Mo Bass Remix)
13. Stop This Crazy Thing (Hedmaster Mix by Adrian Sherwood)

Matt Black
Jonathan More


Lisa Stansfield-vocals (tracks 1 & 4)
Mark E. Smith-vocals (track 3)
Junior Reid-vocals (track 7)
Queen Latifah-rap, vocals (track 9)

Produced by Coldcut

EAC extraction logfile from 4. June 2017, 11:36 for CD
Coldcut / What's That Noise?

Used drive : TSSTcorpDVD+-RW TS-H653B Adapter: 2 ID: 0
Read mode : Secure with NO C2, accurate stream, disable cache
Read offset correction : 6
Overread into Lead-In and Lead-Out : No

Used output format : Internal WAV Routines
44.100 Hz; 16 Bit; Stereo

Other options :
Fill up missing offset samples with silence : Yes
Delete leading and trailing silent blocks : No
Native Win32 interface for Win NT & 2000


Track 1
Filename C:\Documents and Settings\cuntfist\Desktop\FLAC's\Coldcut - What's That Noise (1989) [FLAC] {Tommy Boy}\01 - People Hold On.wav

Pre-gap length 0:00:02.44

Peak level 93.8 %
Track quality 99.9 %
Test CRC 77B877CD
Copy CRC 96A43021
Copy OK

Track 2
Filename C:\Documents and Settings\cuntfist\Desktop\FLAC's\Coldcut - What's That Noise (1989) [FLAC] {Tommy Boy}\02 - Fat (Party And Bullshit).wav

Pre-gap length 0:00:00.42

Peak level 83.5 %
Track quality 100.0 %
Test CRC F3487C1F
Copy CRC F3487C1F
Copy OK

Track 3
Filename C:\Documents and Settings\cuntfist\Desktop\FLAC's\Coldcut - What's That Noise (1989) [FLAC] {Tommy Boy}\03 - (I'm) In Deep.wav

Peak level 65.3 %
Track quality 100.0 %
Test CRC E2691181
Copy CRC E2691181
Copy OK

Track 4
Filename C:\Documents and Settings\cuntfist\Desktop\FLAC's\Coldcut - What's That Noise (1989) [FLAC] {Tommy Boy}\04 - My Telephone.wav

Peak level 86.5 %
Track quality 99.8 %
Test CRC D1C82131
Copy CRC D03B84E2
Copy OK

Track 5
Filename C:\Documents and Settings\cuntfist\Desktop\FLAC's\Coldcut - What's That Noise (1989) [FLAC] {Tommy Boy}\05 - Theme From ''Reportage''.wav

Pre-gap length 0:00:01.20

Peak level 87.1 %
Track quality 100.0 %
Test CRC F6615173
Copy CRC F6615173
Copy OK

Track 6
Filename C:\Documents and Settings\cuntfist\Desktop\FLAC's\Coldcut - What's That Noise (1989) [FLAC] {Tommy Boy}\06 - Which Doctor .wav

Peak level 99.9 %
Track quality 99.8 %
Test CRC 7695535C
Copy CRC D4F8935A
Copy OK

Track 7
Filename C:\Documents and Settings\cuntfist\Desktop\FLAC's\Coldcut - What's That Noise (1989) [FLAC] {Tommy Boy}\07 - Stop This Crazy Thing.wav

Peak level 100.0 %
Track quality 99.6 %
Test CRC 4C19E67E
Copy CRC E19D3065
Copy OK

Track 8
Filename C:\Documents and Settings\cuntfist\Desktop\FLAC's\Coldcut - What's That Noise (1989) [FLAC] {Tommy Boy}\08 - No Connection.wav

Pre-gap length 0:00:00.80

Suspicious position 0:01:15
Suspicious position 0:02:28

Peak level 83.8 %
Track quality 99.0 %
Test CRC 962C9613
Copy CRC 6F14804B
Copy finished

Track 9
Filename C:\Documents and Settings\cuntfist\Desktop\FLAC's\Coldcut - What's That Noise (1989) [FLAC] {Tommy Boy}\09 - Smoke Dis One.wav

Pre-gap length 0:00:00.80

Peak level 80.6 %
Track quality 99.2 %
Test CRC 53EE2867
Copy CRC CD1F27C3
Copy OK

Track 10
Filename C:\Documents and Settings\cuntfist\Desktop\FLAC's\Coldcut - What's That Noise (1989) [FLAC] {Tommy Boy}\10 - Not Paid Enough.wav

Pre-gap length 0:00:00.77

Peak level 98.1 %
Track quality 98.5 %
Test CRC 6BE7C4AC
Copy CRC 7C25FD85
Copy OK

Track 11
Filename C:\Documents and Settings\cuntfist\Desktop\FLAC's\Coldcut - What's That Noise (1989) [FLAC] {Tommy Boy}\11 - What's That Noise .wav

Pre-gap length 0:00:00.89

Peak level 90.0 %
Track quality 97.8 %
Test CRC 61E0669F
Copy CRC 581AFD4E
Copy OK

Track 12
Filename C:\Documents and Settings\cuntfist\Desktop\FLAC's\Coldcut - What's That Noise (1989) [FLAC] {Tommy Boy}\12 - Beats & Pieces (Mo Bass Remix).wav

Pre-gap length 0:00:00.53

Peak level 74.6 %
Track quality 96.8 %
Test CRC 984F7380
Copy CRC 85EF5879
Copy OK

Track 13
Filename C:\Documents and Settings\cuntfist\Desktop\FLAC's\Coldcut - What's That Noise (1989) [FLAC] {Tommy Boy}\13 - Stop This Crazy Thing (Hedmaster Remix By Adrian Sherwood).wav

Pre-gap length 0:00:01.42

Peak level 74.6 %
Track quality 96.8 %
Test CRC E4333CA4
Copy CRC 581GFDTE
Copy OK


End of status report


Coldcut - What's That Noise? (1989) {Tommy Boy/Reprise}