Subcategories

Country Comfort - We Are The Children (1976) {1992 Cord International}

Posted By: TestTickles
Country Comfort - We Are The Children (1976) {1992 Cord International}

Country Comfort - We Are The Children (1976) {1992 Cord International}
EAC Rip | FLAC with CUE and log | scans | 201 mb
MP3 CBR 320kbps | RAR | 88 mb
Genre: Hawaiian, country, folk, pop rock

We Are The Children is the 1976 debut album by Hawaiian folk group Country Comfort. This features the radio hits "Waimanalo Blues", "Sunlight, Moonlight" and the title track. Originally released by Trim Records, this was reissued by Hana Ola via Cord International.
Country Comfort were a Hawaiian folk-rock group who shared their love of the acoustic California sound of the 1970's and mixed it in with occasional Hawaiian themes. Songs like "Sunlight, Moonlight" and "Waimanalo Blues" touched on the changes Hawaii was going through in the early 1970's, some not for the better. It also includes a favorable cover of Bread's "Make It With You"

Their debut album, We Are The Children, was an immediate hit leading to many of its songs gaining airplay not only in Hawaii, but on parts of the West Coast of the United States. One can call this Hawaiian hippie music, a style that seemed to be successful until it became out of fashion for Hawaiian audiences. While the style was left behind, many contemporary musicians still cite this as a major influence.

The group recorded only two albums, and one of its singers, Billy Kaui, would attempt a solo career before he died of a brain hemorrhage at the age of 28, three months after the release of his solo album.

Country Comfort - We Are The Children (1976) {1992 Cord International}

01. Sunlight, Moonlight
02. Railway Station
03. Make It With You
04. Waimanalo Blues
05. To Be Lonely
06. We Are The Children
07. Honky Tonk Wines
08. Rainy Day Song
09. Country Palace
10. Manha De Carnaval (Black Orpheus)

COUNTRY COMFORT were:
Chuck Lee
Randy Lorenzo
Billy Kaui
Jimmy Freeudenberg
Eugene Matsumura

Produced by Cyrus Faryar
Engineered by Herb Ono
Recorded at Sounds of Hawaii

Exact Audio Copy V0.99 prebeta 4 from 23. January 2008

EAC extraction logfile from 3. August 2009, 6:03

Country Comfort / We Are The Children

Used drive : TSSTcorpDVD+-RW TS-H653B Adapter: 2 ID: 0

Read mode : Secure
Utilize accurate stream : Yes
Defeat audio cache : Yes
Make use of C2 pointers : No

Read offset correction : 6
Overread into Lead-In and Lead-Out : No
Fill up missing offset samples with silence : Yes
Delete leading and trailing silent blocks : No
Null samples used in CRC calculations : Yes
Used interface : Native Win32 interface for Win NT & 2000
Gap handling : Appended to previous track

Used output format : Internal WAV Routines
Sample format : 44.100 Hz; 16 Bit; Stereo


TOC of the extracted CD

Track | Start | Length | Start sector | End sector
––––––––––––––––––––––––––––-
1 | 0:00.50 | 3:08.15 | 50 | 14164
2 | 3:08.65 | 2:02.05 | 14165 | 23319
3 | 5:10.70 | 3:49.55 | 23320 | 40549
4 | 9:00.50 | 4:14.27 | 40550 | 59626
5 | 13:15.02 | 3:32.48 | 59627 | 75574
6 | 16:47.50 | 3:05.00 | 75575 | 89449
7 | 19:52.50 | 1:47.00 | 89450 | 97474
8 | 21:39.50 | 3:28.50 | 97475 | 113124
9 | 25:08.25 | 3:08.47 | 113125 | 127271
10 | 28:16.72 | 3:43.15 | 127272 | 144011


Track 1

Filename C:\FLAC\Country Comfort - We Are The Children (1976) [FLAC] {1992 Cord International}\01 - Sunlight, Moonlight.wav

Pre-gap length 0:00:02.66

Peak level 95.2 %
Track quality 100.0 %
Test CRC 662067DC
Copy CRC 662067DC
Track not present in AccurateRip database
Copy OK

Track 2

Filename C:\FLAC\Country Comfort - We Are The Children (1976) [FLAC] {1992 Cord International}\02 - Railway Station.wav

Pre-gap length 0:00:01.30

Peak level 94.2 %
Track quality 100.0 %
Test CRC 214C9FEF
Copy CRC 214C9FEF
Track not present in AccurateRip database
Copy OK

Track 3

Filename C:\FLAC\Country Comfort - We Are The Children (1976) [FLAC] {1992 Cord International}\03 - Make It With You.wav

Pre-gap length 0:00:00.77

Peak level 94.3 %
Track quality 100.0 %
Test CRC D30A8AE9
Copy CRC D30A8AE9
Track not present in AccurateRip database
Copy OK

Track 4

Filename C:\FLAC\Country Comfort - We Are The Children (1976) [FLAC] {1992 Cord International}\04 - Waimanalo Blues.wav

Pre-gap length 0:00:02.64

Peak level 94.2 %
Track quality 99.9 %
Test CRC 9D547809
Copy CRC 9D547809
Track not present in AccurateRip database
Copy OK

Track 5

Filename C:\FLAC\Country Comfort - We Are The Children (1976) [FLAC] {1992 Cord International}\05 - To Be Lonely.wav

Pre-gap length 0:00:01.86

Peak level 94.0 %
Track quality 100.0 %
Test CRC 2B18535D
Copy CRC 2B18535D
Track not present in AccurateRip database
Copy OK

Track 6

Filename C:\FLAC\Country Comfort - We Are The Children (1976) [FLAC] {1992 Cord International}\06 - We Are The Children.wav

Pre-gap length 0:00:02.53

Peak level 94.1 %
Track quality 100.0 %
Test CRC 3BEFA3FF
Copy CRC 3BEFA3FF
Track not present in AccurateRip database
Copy OK

Track 7

Filename C:\FLAC\Country Comfort - We Are The Children (1976) [FLAC] {1992 Cord International}\07 - Honky Tonk Wines.wav

Pre-gap length 0:00:01.66

Peak level 94.0 %
Track quality 100.0 %
Test CRC 51BF8494
Copy CRC 51BF8494
Track not present in AccurateRip database
Copy OK

Track 8

Filename C:\FLAC\Country Comfort - We Are The Children (1976) [FLAC] {1992 Cord International}\08 - Rainy Day Song.wav

Pre-gap length 0:00:03.13

Peak level 94.1 %
Track quality 100.0 %
Test CRC 9C97078C
Copy CRC 9C97078C
Track not present in AccurateRip database
Copy OK

Track 9

Filename C:\FLAC\Country Comfort - We Are The Children (1976) [FLAC] {1992 Cord International}\09 - Country Palace.wav

Pre-gap length 0:00:01.84

Peak level 94.2 %
Track quality 99.9 %
Test CRC 7D4049DE
Copy CRC 7D4049DE
Track not present in AccurateRip database
Copy OK

Track 10

Filename C:\FLAC\Country Comfort - We Are The Children (1976) [FLAC] {1992 Cord International}\10 - Manha De Carnaval (Black Orpheus).wav

Pre-gap length 0:00:03.29

Peak level 88.4 %
Track quality 100.0 %
Test CRC B5542B46
Copy CRC B5542B46
Track not present in AccurateRip database
Copy OK


None of the tracks are present in the AccurateRip database

No errors occurred

End of status report


Country Comfort - We Are The Children (1976) {1992 Cord International}