Subcategories

Camp Lo - Uptown Saturday Night (1997) {Profile}

Posted By: TestTickles
Camp Lo - Uptown Saturday Night (1997) {Profile}

Camp Lo - Uptown Saturday Night (1997) {Profile}
EAC Rip | FLAC with CUE and log | scans | 409 mb
MP3 CBR 320kbps | RAR | 160 mb
Genre: hip-hop, rap

Uptown Saturday Night is the 1997 debut album by Saladine Wallace and Salahadeen Wilds, who are better known as Geechi Suede and Sonny Cheeba of the New York rap duo Camp Lo. Released by Profile Records, this features the hit songs "Coolie High", "Luchini aka This Is It" and "Black Nostaljack (Aka Come On)". Some of the special guests include Trugoy/Dave from De La Soul and Butterfly/Ish from Digable Planets, later Shabazz Palaces.

Camp Lo - Uptown Saturday Night (1997) {Profile}

01. Krystal Karrington
02. Luchini aka This Is It
03. Park Joint
04. B-Side To Hollywood
05. Killin' Em Softly
06. Sparkle
07. Black Connection
08. Swing
09. Rockin' It aka Spanish Harlem
10. Say Word
11. Negro League
12. Nicky Barnes aka It's Alright
13. Black Nostaljack aka Come On
14. Coolie High
15. Sparkle (Mr. Midnight Mix)

Trugoy The Dove-rap (track 4)
Ish The Butterfly-rap (track 8)
Jungle Brown-rap (tracks 10 & 12)
Bones-rap (track 11)
Karachi R.A.W.-rap (track 11)
Joe Quinde-bass (tracks 6 & 7)
Bill Ware-vibes (track 6)
Pete Levin-piano (track 6)
Gabriel Machedo-congas (track 6)
Joe Mendelson-all instruments (track 14)
Tracey Amos-vocals (track 14)

All tracks produced by Ski aka Joe Chink except:
Track 4 produced by Trugoy The Dove
Track 13 produced by Ski &
Ill Will
Track 14 produced by Jocki & Ski

All songs recorded & mixed by Joe Quinde except:
Track 2 mixed by Kenny Ortiz
Track 4 recorded & mixed by Guido
Assistant engineers: Max Vargas, Dexter Thibou & Dejuana Perignon

Mastered by Alan Douches

Camp Lo - Uptown Saturday Night (1997) {Profile}


EAC extraction logfile from 4. June 2017, 4:23 for CD
Camp Lo / Uptown Saturday Night

Used drive : TSSTcorpDVD+-RW TS-H653B Adapter: 2 ID: 0
Read mode : Secure with NO C2, accurate stream, disable cache
Read offset correction : 6
Overread into Lead-In and Lead-Out : No

Used output format : Internal WAV Routines
44.100 Hz; 16 Bit; Stereo

Other options :
Fill up missing offset samples with silence : Yes
Delete leading and trailing silent blocks : No
Native Win32 interface for Win NT & 2000


Track 1
Filename C:\Documents and Settings\cuntfist\Desktop\FLAC's\Camp Lo - Uptown Saturday Night (1997) [FLAC] {Profile}\01 - Krystal Karrington.wav

Pre-gap length 0:00:02.00

Peak level 96.6 %
Track quality 99.9 %
Test CRC 6FC5F010
Copy CRC 6FC5F010
Copy OK

Track 2
Filename C:\Documents and Settings\cuntfist\Desktop\FLAC's\Camp Lo - Uptown Saturday Night (1997) [FLAC] {Profile}\02 - Luchini aka This Is It.wav

Pre-gap length 0:00:00.90

Peak level 96.6 %
Track quality 99.9 %
Test CRC 47B8FD56
Copy CRC 47B8FD56
Copy OK

Track 3
Filename C:\Documents and Settings\cuntfist\Desktop\FLAC's\Camp Lo - Uptown Saturday Night (1997) [FLAC] {Profile}\03 - Park Joint.wav

Peak level 96.6 %
Track quality 100.0 %
Test CRC 42D06F10
Copy CRC 42D06F10
Copy OK

Track 4
Filename C:\Documents and Settings\cuntfist\Desktop\FLAC's\Camp Lo - Uptown Saturday Night (1997) [FLAC] {Profile}\04 - B-Side To Hollywood.wav

Peak level 96.6 %
Track quality 99.9 %
Test CRC D446E43F
Copy CRC D446E43F
Copy OK

Track 5
Filename C:\Documents and Settings\cuntfist\Desktop\FLAC's\Camp Lo - Uptown Saturday Night (1997) [FLAC] {Profile}\05 - Killin' Em Softly.wav

Peak level 96.6 %
Track quality 100.0 %
Test CRC B4F53D36
Copy CRC B4F53D36
Copy OK

Track 6
Filename C:\Documents and Settings\cuntfist\Desktop\FLAC's\Camp Lo - Uptown Saturday Night (1997) [FLAC] {Profile}\06 - Sparkle.wav

Peak level 96.6 %
Track quality 100.0 %
Test CRC 3E934434
Copy CRC 3E934434
Copy OK

Track 7
Filename C:\Documents and Settings\cuntfist\Desktop\FLAC's\Camp Lo - Uptown Saturday Night (1997) [FLAC] {Profile}\07 - Black Connection.wav

Pre-gap length 0:00:01.17

Peak level 96.6 %
Track quality 100.0 %
Test CRC C4A9D481
Copy CRC C4A9D481
Copy OK

Track 8
Filename C:\Documents and Settings\cuntfist\Desktop\FLAC's\Camp Lo - Uptown Saturday Night (1997) [FLAC] {Profile}\08 - Swing.wav

Pre-gap length 0:00:00.80

Peak level 96.6 %
Track quality 100.0 %
Test CRC B309CFB2
Copy CRC B309CFB2
Copy OK

Track 9
Filename C:\Documents and Settings\cuntfist\Desktop\FLAC's\Camp Lo - Uptown Saturday Night (1997) [FLAC] {Profile}\09 - Rockin' It aka Spanish Harlem.wav

Peak level 96.6 %
Track quality 100.0 %
Test CRC A5BF4F7F
Copy CRC A5BF4F7F
Copy OK

Track 10
Filename C:\Documents and Settings\cuntfist\Desktop\FLAC's\Camp Lo - Uptown Saturday Night (1997) [FLAC] {Profile}\10 - Say Word.wav

Pre-gap length 0:00:00.80

Peak level 96.6 %
Track quality 100.0 %
Test CRC B46A18FF
Copy CRC B46A18FF
Copy OK

Track 11
Filename C:\Documents and Settings\cuntfist\Desktop\FLAC's\Camp Lo - Uptown Saturday Night (1997) [FLAC] {Profile}\11 - Negro League.wav

Pre-gap length 0:00:00.64

Peak level 96.6 %
Track quality 100.0 %
Test CRC A4E6CD32
Copy CRC A4E6CD32
Copy OK

Track 12
Filename C:\Documents and Settings\cuntfist\Desktop\FLAC's\Camp Lo - Uptown Saturday Night (1997) [FLAC] {Profile}\12 - Nicky Barnes aka It's Alright.wav

Pre-gap length 0:00:00.53

Peak level 96.6 %
Track quality 100.0 %
Test CRC BDB0A715
Copy CRC BDB0A715
Copy OK

Track 13
Filename C:\Documents and Settings\cuntfist\Desktop\FLAC's\Camp Lo - Uptown Saturday Night (1997) [FLAC] {Profile}\13 - Black Nostaljack aka Come On.wav

Pre-gap length 0:00:00.73

Peak level 96.6 %
Track quality 100.0 %
Test CRC 854C312C
Copy CRC 854C312C
Copy OK

Track 14
Filename C:\Documents and Settings\cuntfist\Desktop\FLAC's\Camp Lo - Uptown Saturday Night (1997) [FLAC] {Profile}\14 - Coolie High.wav

Pre-gap length 0:00:01.00

Peak level 96.6 %
Track quality 100.0 %
Test CRC 00BEEE11
Copy CRC 00BEEE11
Copy OK

Track 15
Filename C:\Documents and Settings\cuntfist\Desktop\FLAC's\Camp Lo - Uptown Saturday Night (1997) [FLAC] {Profile}\15 - Sparkle (Mr. Midnight Mix).wav

Peak level 96.6 %
Track quality 100.0 %
Test CRC 33941917
Copy CRC 33941917
Copy OK

No errors occured


End of status report


Camp Lo - Uptown Saturday Night (1997) {Profile}