Subcategories

Chris Humphrey - Nothing But Blue Sky (2007) {Cadence Jazz}

Posted By: TestTickles
Chris Humphrey - Nothing But Blue Sky (2007) {Cadence Jazz}

Chris Humphrey - Nothing But Blue Sky (2007) {Cadence Jazz}
EAC Rip | FLAC with CUE and log | scans | 362 mb
MP3 CBR 320kbps | RAR | 147mb
Genre: jazz

Nothing But Blue Sky is the 2007 album by jazz singer Chris Humphrey, who is backed by Mark Shilansky, Martin Wind & Matt Wilson. This comes to you through Cadence Jazz.

Chris Humphrey - Nothing But Blue Sky (2007) {Cadence Jazz}

01. I Can See Clearly Now
02. (The Date Is) Friday The 13th
03. If I Should Lose You
04. Anna's Song (Safe In My Arms)
05. Swingin' 'Til The Girls Come Home
06. Solitude
07. In Walked Bud
08. Lullaby For Jackson
09. A Love So Strong
10. One Note Samba
11. Every Time I Feel The Spirit

Chris Humphrey-vocals
Matt Wilson-drums
Martin Wind-bass
Mark Shilansky-piano

Produced by Chris Humphrey
Engineered by Katherine Miller
Recorded 13 & 14 June, 2005

EAC extraction logfile from 13. November 2017, 9:37 for CD
Chris Humphrey / Nothing But Blue Sky

Used drive : TSSTcorpDVD+-RW TS-H653B Adapter: 2 ID: 0
Read mode : Secure with NO C2, accurate stream, disable cache
Read offset correction : 6
Overread into Lead-In and Lead-Out : No

Used output format : Internal WAV Routines
44.100 Hz; 16 Bit; Stereo

Other options :
Fill up missing offset samples with silence : Yes
Delete leading and trailing silent blocks : No
Native Win32 interface for Win NT & 2000


Track 1
Filename C:\Documents and Settings\cuntfist\Desktop\FLAC's\31\Chris Humphrey - Nothing But Blue Sky (2007) [FLAC] {Cadence Jazz}\01 - I Can See Clearly Now.wav

Pre-gap length 0:00:02.00

Peak level 100.0 %
Track quality 100.0 %
Test CRC 5BF8AE09
Copy CRC 5BF8AE09
Copy OK

Track 2
Filename C:\Documents and Settings\cuntfist\Desktop\FLAC's\31\Chris Humphrey - Nothing But Blue Sky (2007) [FLAC] {Cadence Jazz}\02 - (The Date Is) Friday The 13th.wav

Pre-gap length 0:00:02.76

Peak level 100.0 %
Track quality 100.0 %
Test CRC FAED5B7C
Copy CRC FAED5B7C
Copy OK

Track 3
Filename C:\Documents and Settings\cuntfist\Desktop\FLAC's\31\Chris Humphrey - Nothing But Blue Sky (2007) [FLAC] {Cadence Jazz}\03 - If I Should Lose You.wav

Pre-gap length 0:00:02.77

Peak level 100.0 %
Track quality 100.0 %
Test CRC F56636DB
Copy CRC F56636DB
Copy OK

Track 4
Filename C:\Documents and Settings\cuntfist\Desktop\FLAC's\31\Chris Humphrey - Nothing But Blue Sky (2007) [FLAC] {Cadence Jazz}\04 - Anna's Song (Safe In My Arms).wav

Pre-gap length 0:00:02.76

Peak level 100.0 %
Track quality 100.0 %
Test CRC 7246DEC3
Copy CRC 7246DEC3
Copy OK

Track 5
Filename C:\Documents and Settings\cuntfist\Desktop\FLAC's\31\Chris Humphrey - Nothing But Blue Sky (2007) [FLAC] {Cadence Jazz}\05 - Swingin' 'Til The Girls Come Home.wav

Pre-gap length 0:00:02.76

Peak level 100.0 %
Track quality 100.0 %
Test CRC 4AC17211
Copy CRC 4AC17211
Copy OK

Track 6
Filename C:\Documents and Settings\cuntfist\Desktop\FLAC's\31\Chris Humphrey - Nothing But Blue Sky (2007) [FLAC] {Cadence Jazz}\06 - Solitude.wav

Pre-gap length 0:00:02.77

Peak level 100.0 %
Track quality 100.0 %
Test CRC 8207201C
Copy CRC 8207201C
Copy OK

Track 7
Filename C:\Documents and Settings\cuntfist\Desktop\FLAC's\31\Chris Humphrey - Nothing But Blue Sky (2007) [FLAC] {Cadence Jazz}\07 - In Walked Bud.wav

Pre-gap length 0:00:02.76

Peak level 100.0 %
Track quality 99.9 %
Test CRC B202C756
Copy CRC B202C756
Copy OK

Track 8
Filename C:\Documents and Settings\cuntfist\Desktop\FLAC's\31\Chris Humphrey - Nothing But Blue Sky (2007) [FLAC] {Cadence Jazz}\08 - Lullaby For Jackson.wav

Pre-gap length 0:00:02.76

Peak level 100.0 %
Track quality 100.0 %
Test CRC 1538ADD6
Copy CRC 1538ADD6
Copy OK

Track 9
Filename C:\Documents and Settings\cuntfist\Desktop\FLAC's\31\Chris Humphrey - Nothing But Blue Sky (2007) [FLAC] {Cadence Jazz}\09 - A Love So Strong.wav

Pre-gap length 0:00:02.77

Peak level 100.0 %
Track quality 100.0 %
Test CRC FEA10BDD
Copy CRC FEA10BDD
Copy OK

Track 10
Filename C:\Documents and Settings\cuntfist\Desktop\FLAC's\31\Chris Humphrey - Nothing But Blue Sky (2007) [FLAC] {Cadence Jazz}\10 - One Note Samba.wav

Pre-gap length 0:00:02.76

Peak level 100.0 %
Track quality 100.0 %
Test CRC 19E46D09
Copy CRC 19E46D09
Copy OK

Track 11
Filename C:\Documents and Settings\cuntfist\Desktop\FLAC's\31\Chris Humphrey - Nothing But Blue Sky (2007) [FLAC] {Cadence Jazz}\11 - Every Time I Feel The Spirit.wav

Pre-gap length 0:00:02.77

Peak level 100.0 %
Track quality 100.0 %
Test CRC 09E7D0CC
Copy CRC 09E7D0CC
Copy OK

No errors occured


End of status report


Chris Humphrey - Nothing But Blue Sky (2007) {Cadence Jazz}