Subcategories

Chico Hamilton - Foreststorn (2001) {Koch Jazz}

Posted By: TestTickles
Chico Hamilton - Foreststorn (2001) {Koch Jazz}

Chico Hamilton - Foreststorn (2001) {Koch Jazz}
EAC Rip | FLAC with CUE and log | scans | 442 mb
MP3 CBR 320kbps | RAR | 211 mb
Genre: jazz, big band

Foreststorn is the 2001 album by American jazz drummer Chico Hamilton. This one features guests Steve Turre, John Popper, and Charlie Watts. This was released by Koch Jazz.

Chico Hamilton - Foreststorn (2001) {Koch Jazz}

01. Outrageous
02. That Boy With That Long Hair
03. I'm Gonna Move To The Outskirts Of Town
04. Bone Cello
05. Around The Corner
06. Soprano Dance
07. 11 Bars For Arthur
08. Sweet Dreams
09. Sorta New
10. Guitar Willie
11. Foreststorn
12. Here Comes Charlie Now
13. When The Saints Go Marchin' In
14. Foreststorn. Reprise

Chico Hamilton-drums & vocals
Cary DeNigris-guitar
Paul Ramsey-bass
Erik Lawrence-alto/soprano saxes & flute
Evan Schwam-tenor saxophone

Arthur Blythe-also saxophone (track 7)
Akua Dixon-cello (track 4)
Eric Person-soprano saxophone (track 6)
John Popper-harmonica (track 3)
Eric Schenkman-guitar (track 10)
Steve Turre-trombone (track 4)
Charlie Watts-drums (track 12)


Produced by Chico Hamilton
Co-produced by David Merrill & Jeffrey Andrew Caddick
Recorded & mixed October/November 2000 and January 2001 at TikI Recording Studios, Glen Cove, NY
Engineer: David Merrill
Charlie Watts recorded December 2000 at Olympic REecording Studios, London, England
Engineer: Adam Brown
Assistant: Matt Fields

Exact Audio Copy V1.0 beta 6 from 9. April 2015

EAC extraction logfile from 6. January 2018, 16:17

Chico Hamilton / Foreststorn

Used drive : TSSTcorpDVD+-RW TS-L633C Adapter: 1 ID: 0

Read mode : Secure
Utilize accurate stream : Yes
Defeat audio cache : Yes
Make use of C2 pointers : No

Read offset correction : 6
Overread into Lead-In and Lead-Out : No
Fill up missing offset samples with silence : Yes
Delete leading and trailing silent blocks : No
Null samples used in CRC calculations : Yes
Used interface : Native Win32 interface for Win NT & 2000
Gap handling : Appended to previous track

Used output format : Internal WAV Routines
Sample format : 44.100 Hz; 16 Bit; Stereo


TOC of the extracted CD

Track | Start | Length | Start sector | End sector
––––––––––––––––––––––––––––-
1 | 0:00.00 | 5:07.32 | 0 | 23056
2 | 5:07.32 | 4:45.65 | 23057 | 44496
3 | 9:53.22 | 6:56.23 | 44497 | 75719
4 | 16:49.45 | 6:34.30 | 75720 | 105299
5 | 23:24.00 | 4:41.00 | 105300 | 126374
6 | 28:05.00 | 4:31.25 | 126375 | 146724
7 | 32:36.25 | 4:41.15 | 146725 | 167814
8 | 37:17.40 | 5:08.10 | 167815 | 190924
9 | 42:25.50 | 4:40.25 | 190925 | 211949
10 | 47:06.00 | 5:03.25 | 211950 | 234699
11 | 52:09.25 | 4:53.15 | 234700 | 256689
12 | 57:02.40 | 1:26.02 | 256690 | 263141
13 | 58:28.42 | 3:06.45 | 263142 | 277136
14 | 61:35.12 | 1:59.60 | 277137 | 286121


Track 1

Filename C:\My Documents\My FLAC\Chico Hamilton - Foreststorn (2001) [FLAC] {Koch Jazz}\01 - Outrageous.wav

Pre-gap length 0:00:02.00

Peak level 86.8 %
Extraction speed 1.0 X
Track quality 99.9 %
Test CRC 24450142
Copy CRC 24450142
Accurately ripped (confidence 2) [FECA6308] (AR v1)
Copy OK

Track 2

Filename C:\My Documents\My FLAC\Chico Hamilton - Foreststorn (2001) [FLAC] {Koch Jazz}\02 - That Boy With That Long Hair.wav

Peak level 90.4 %
Extraction speed 1.2 X
Track quality 99.9 %
Test CRC D5B21B13
Copy CRC D5B21B13
Accurately ripped (confidence 2) [3D39A724] (AR v1)
Copy OK

Track 3

Filename C:\My Documents\My FLAC\Chico Hamilton - Foreststorn (2001) [FLAC] {Koch Jazz}\03 - I'm Gonna Move To The Outskirts Of Town.wav

Peak level 81.3 %
Extraction speed 1.4 X
Track quality 99.9 %
Test CRC B42413C7
Copy CRC B42413C7
Accurately ripped (confidence 2) [FF9520B3] (AR v1)
Copy OK

Track 4

Filename C:\My Documents\My FLAC\Chico Hamilton - Foreststorn (2001) [FLAC] {Koch Jazz}\04 - Bone Cello.wav

Pre-gap length 0:00:02.00

Peak level 97.4 %
Extraction speed 1.5 X
Track quality 99.9 %
Test CRC 83DF58A2
Copy CRC 83DF58A2
Accurately ripped (confidence 2) [54CB94D2] (AR v1)
Copy OK

Track 5

Filename C:\My Documents\My FLAC\Chico Hamilton - Foreststorn (2001) [FLAC] {Koch Jazz}\05 - Around The Corner.wav

Peak level 100.0 %
Extraction speed 1.7 X
Track quality 100.0 %
Test CRC 665DBE36
Copy CRC 665DBE36
Accurately ripped (confidence 2) [78FC275A] (AR v1)
Copy OK

Track 6

Filename C:\My Documents\My FLAC\Chico Hamilton - Foreststorn (2001) [FLAC] {Koch Jazz}\06 - Soprano Dance.wav

Peak level 82.9 %
Extraction speed 1.8 X
Track quality 100.0 %
Test CRC 716E6D1D
Copy CRC 716E6D1D
Accurately ripped (confidence 2) [BD9719C1] (AR v1)
Copy OK

Track 7

Filename C:\My Documents\My FLAC\Chico Hamilton - Foreststorn (2001) [FLAC] {Koch Jazz}\07 - 11 Bars For Arthur.wav

Peak level 43.9 %
Extraction speed 1.7 X
Track quality 99.9 %
Test CRC 795A633C
Copy CRC 795A633C
Accurately ripped (confidence 2) [2619BA8B] (AR v1)
Copy OK

Track 8

Filename C:\My Documents\My FLAC\Chico Hamilton - Foreststorn (2001) [FLAC] {Koch Jazz}\08 - Sweet Dreams.wav

Pre-gap length 0:00:01.00

Peak level 79.4 %
Extraction speed 2.0 X
Track quality 100.0 %
Test CRC 53EC610E
Copy CRC 53EC610E
Accurately ripped (confidence 2) [BAED0791] (AR v1)
Copy OK

Track 9

Filename C:\My Documents\My FLAC\Chico Hamilton - Foreststorn (2001) [FLAC] {Koch Jazz}\09 - Sorta New.wav

Peak level 100.0 %
Extraction speed 2.1 X
Track quality 100.0 %
Test CRC 30330780
Copy CRC 30330780
Accurately ripped (confidence 2) [0E805C63] (AR v1)
Copy OK

Track 10

Filename C:\My Documents\My FLAC\Chico Hamilton - Foreststorn (2001) [FLAC] {Koch Jazz}\10 - Guitar Willie.wav

Peak level 96.3 %
Extraction speed 2.2 X
Track quality 100.0 %
Test CRC 220D2055
Copy CRC 220D2055
Accurately ripped (confidence 2) [D16FDB64] (AR v1)
Copy OK

Track 11

Filename C:\My Documents\My FLAC\Chico Hamilton - Foreststorn (2001) [FLAC] {Koch Jazz}\11 - Foreststorn.wav

Peak level 97.9 %
Extraction speed 2.2 X
Track quality 100.0 %
Test CRC F5A38FF5
Copy CRC F5A38FF5
Accurately ripped (confidence 2) [F55ACDB3] (AR v1)
Copy OK

Track 12

Filename C:\My Documents\My FLAC\Chico Hamilton - Foreststorn (2001) [FLAC] {Koch Jazz}\12 - Here Comes Charlie Now.wav

Pre-gap length 0:00:01.18

Peak level 92.6 %
Extraction speed 1.8 X
Track quality 100.0 %
Test CRC F697543A
Copy CRC F697543A
Accurately ripped (confidence 2) [248CB38C] (AR v1)
Copy OK

Track 13

Filename C:\My Documents\My FLAC\Chico Hamilton - Foreststorn (2001) [FLAC] {Koch Jazz}\13 - When The Saints Go Marchin' In.wav

Pre-gap length 0:00:01.10

Peak level 85.5 %
Extraction speed 2.1 X
Track quality 100.0 %
Test CRC 92D4CF45
Copy CRC 92D4CF45
Accurately ripped (confidence 2) [6A411418] (AR v1)
Copy OK

Track 14

Filename C:\My Documents\My FLAC\Chico Hamilton - Foreststorn (2001) [FLAC] {Koch Jazz}\14 - Foreststorn - Reprise.wav

Pre-gap length 0:00:03.12

Peak level 91.6 %
Extraction speed 2.0 X
Track quality 100.0 %
Test CRC 7CEC3874
Copy CRC 7CEC3874
Accurately ripped (confidence 2) [312609DF] (AR v1)
Copy OK


All tracks accurately ripped

No errors occurred

End of status report

–– CUETools DB Plugin V2.1.6

[CTDB TOCID: LTHXq4eGvgQ4go0FqbLroWnW1dQ-] found
Submit result: LTHXq4eGvgQ4go0FqbLroWnW1dQ- has been confirmed
Track | CTDB Status
1 | (2/2) Accurately ripped
2 | (2/2) Accurately ripped
3 | (2/2) Accurately ripped
4 | (2/2) Accurately ripped
5 | (2/2) Accurately ripped
6 | (2/2) Accurately ripped
7 | (2/2) Accurately ripped
8 | (2/2) Accurately ripped
9 | (2/2) Accurately ripped
10 | (2/2) Accurately ripped
11 | (2/2) Accurately ripped
12 | (2/2) Accurately ripped
13 | (2/2) Accurately ripped
14 | (2/2) Accurately ripped


==== Log checksum 3A0D35D361337E6E9D46FCB81673DC7EE24CD9491D245D056057423045D8B545 ====


Chico Hamilton - Foreststorn (2001) {Koch Jazz}