Subcategories

Chicken Shack - Imagination Lady (1972) {1994 Deram}

Posted By: TestTickles
Chicken Shack - Imagination Lady (1972) {1994 Deram}

Chicken Shack - Imagination Lady (1972) {1994 Deram}
EAC Rip | FLAC with CUE and log | scans | 228 mb
MP3 CBR 320kbps | RAR | 86 mb
Genre: blues rock, classic rock

Imagination Lady is the 1972 album by British blues rock band Chicken Shack. By this period, the group had turned from a quartet to a trio. Originally released by Deram Records, they remastered and reissued this for compact disc in 1994.

Chicken Shack - Imagination Lady (1972) {1994 Deram}

1. Crying Won't Help You Now
2. Daugther Of The Hillside
3. If I Were A Carpenter
4. Going Down
5. Poor Boy
6. Telling Your Fortune
7. The Loser

EAC extraction logfile from 9. May 2006, 22:06 for CD
Chicken Shack / Imagination Lady

Used drive : LITEON DVD-ROM LTD163 Adapter: 0 ID: 2
Read mode : Secure with NO C2, accurate stream, disable cache
Read offset correction : 594
Overread into Lead-In and Lead-Out : No

Used output format : Internal WAV Routines
44.100 Hz; 16 Bit; Stereo

Other options :
Fill up missing offset samples with silence : Yes
Delete leading and trailing silent blocks : No
Native Win32 interface for Win NT & 2000


Track 1
Filename C:\FLAC\Chicken Shack - Imagination Lady (1972) [FLAC] {1994 Deram}\01 - Crying Won't Help You Now.wav

Pre-gap length 0:00:02.44

Peak level 93.7 %
Track quality 99.9 %
Test CRC 38318248
Copy CRC 38318248
Copy OK

Track 2
Filename C:\FLAC\Chicken Shack - Imagination Lady (1972) [FLAC] {1994 Deram}\02 - Daugther Of The Hillside.wav

Peak level 95.5 %
Track quality 99.9 %
Test CRC B2AFF7C1
Copy CRC B2AFF7C1
Copy OK

Track 3
Filename C:\FLAC\Chicken Shack - Imagination Lady (1972) [FLAC] {1994 Deram}\03 - If I Were A Carpenter.wav

Peak level 92.7 %
Track quality 100.0 %
Test CRC 36C5C758
Copy CRC 36C5C758
Copy OK

Track 4
Filename C:\FLAC\Chicken Shack - Imagination Lady (1972) [FLAC] {1994 Deram}\04 - Going Down.wav

Peak level 98.6 %
Track quality 99.9 %
Test CRC AF8CEDBA
Copy CRC AF8CEDBA
Copy OK

Track 5
Filename C:\FLAC\Chicken Shack - Imagination Lady (1972) [FLAC] {1994 Deram}\05 - Poor Boy.wav

Peak level 95.4 %
Track quality 100.0 %
Test CRC 9216A84A
Copy CRC 9216A84A
Copy OK

Track 6
Filename C:\FLAC\Chicken Shack - Imagination Lady (1972) [FLAC] {1994 Deram}\06 - Telling Your Fortune.wav

Peak level 95.6 %
Track quality 100.0 %
Test CRC 0CED71F9
Copy CRC 0CED71F9
Copy OK

Track 7
Filename C:\FLAC\Chicken Shack - Imagination Lady (1972) [FLAC] {1994 Deram}\07 - The Loser.wav

Peak level 88.5 %
Track quality 100.0 %
Test CRC A1E36E49
Copy CRC A1E36E49
Copy OK

No errors occured


End of status report


Chicken Shack - Imagination Lady (1972) {1994 Deram}


Thank you to the original uploader.