Subcategories

Clarence Reid - Dancin' With Nobody But You Babe (1969) {1999 Atlantic CD} **[RE-UP]**

Posted By: TestTickles
Clarence Reid - Dancin' With Nobody But You Babe (1969) {1999 Atlantic CD} **[RE-UP]**

Clarence Reid - Dancin' With Nobody But You Babe (1969) {1999 Atlantic CD}
EAC Rip | FLAC with CUE and log | scans | 243 mb
MP3 CBR 320kbps | RAR | 100 mb
Genre: R&B, soul

Dancin' With Nobody But You Babe is the 1969 debut album by singer/songwriter Clarence Reid. Reid wrote or co-wrote tons of pop and soul/R&B songs in the 1970's, including Betty Wright's "Clean Up Woman" and "Let Me Be Your Lovemaker", Vicki Anderson's "Don't Throw Your Love In The Garbage Can", and Gwen McCrae's "Rockin' Chair" but for some audiences, he is infamously known as the horny and filthy costumed singer known as Blowfly. Before he became known as Blowfly, he was signed to Atco Records in an attempt to be a popular soul vocalist. It failed, and chose to do things in the background, both as a songwriter and as the pussy loving superhero. This album shows slight hints of the humor he already had, especially the album closer, "Send Me Back My Money." It also includes a tasteful cover of The Beatles' "Get Back", for Reid knew the advantages of covering a fab four song and publishing. This CD was released in Japan on 27 October, 1999.

Clarence Reid - Dancin' With Nobody But You Babe (1969) {1999 Atlantic CD} **[RE-UP]**

01. Nobody But You Babe
02. Twenty Five Miles
03. Doggone It
04. Get Back
05. Don't Look Too Hard
06. I've Been Trying
07. Tear You A New Heart
08. Part Time Lover
09. Shop Around
10. Fools Are Not Born
11. Polk Salad Annie
12. Send Me Back My Money

EAC extraction logfile from 13. October 2006, 10:24 for CD
Clarence Reid / Dancin' With Nobody But You Babe

Used drive : LITE-ON DVDRW SOHW-1633S Adapter: 0 ID: 0
Read mode : Secure with NO C2, accurate stream, disable cache
Read offset correction : 12
Overread into Lead-In and Lead-Out : No

Used output format : Internal WAV Routines
44.100 Hz; 16 Bit; Stereo

Other options :
Fill up missing offset samples with silence : Yes
Delete leading and trailing silent blocks : No
Installed external ASPI interface


Track 1
Filename D:\FLAC\Clarence Reid - Dancin' With Nobody But You Babe (1969) [FLAC] {Japan pressing}\01 - Nobody But You Babe.wav

Pre-gap length 0:00:02.00

Peak level 95.4 %
Track quality 100.0 %
Test CRC 8D6C72E7
Copy CRC 8D6C72E7
Copy OK

Track 2
Filename D:\FLAC\Clarence Reid - Dancin' With Nobody But You Babe (1969) [FLAC] {Japan pressing}\02 - Twenty Five Miles.wav

Pre-gap length 0:00:03.33

Peak level 90.7 %
Track quality 99.9 %
Test CRC 9B777FC8
Copy CRC 9B777FC8
Copy OK

Track 3
Filename D:\FLAC\Clarence Reid - Dancin' With Nobody But You Babe (1969) [FLAC] {Japan pressing}\03 - Doggone It.wav

Pre-gap length 0:00:03.10

Peak level 100.0 %
Track quality 100.0 %
Test CRC 69E6351C
Copy CRC 69E6351C
Copy OK

Track 4
Filename D:\FLAC\Clarence Reid - Dancin' With Nobody But You Babe (1969) [FLAC] {Japan pressing}\04 - Get Back.wav

Pre-gap length 0:00:03.30

Peak level 80.0 %
Track quality 100.0 %
Test CRC 8BF80369
Copy CRC 8BF80369
Copy OK

Track 5
Filename D:\FLAC\Clarence Reid - Dancin' With Nobody But You Babe (1969) [FLAC] {Japan pressing}\05 - Don't Look Too Hard.wav

Pre-gap length 0:00:03.77

Peak level 83.3 %
Track quality 99.9 %
Test CRC E7C483FD
Copy CRC E7C483FD
Copy OK

Track 6
Filename D:\FLAC\Clarence Reid - Dancin' With Nobody But You Babe (1969) [FLAC] {Japan pressing}\06 - I've Been Trying.wav

Pre-gap length 0:00:02.73

Peak level 84.8 %
Track quality 100.0 %
Test CRC 993D61EA
Copy CRC 993D61EA
Copy OK

Track 7
Filename D:\FLAC\Clarence Reid - Dancin' With Nobody But You Babe (1969) [FLAC] {Japan pressing}\07 - Tear You A New Heart.wav

Pre-gap length 0:00:01.26

Peak level 100.0 %
Track quality 99.9 %
Test CRC 9B6D7CF7
Copy CRC 9B6D7CF7
Copy OK

Track 8
Filename D:\FLAC\Clarence Reid - Dancin' With Nobody But You Babe (1969) [FLAC] {Japan pressing}\08 - Part Time Lover.wav

Pre-gap length 0:00:03.29

Peak level 86.3 %
Track quality 100.0 %
Test CRC C67564A5
Copy CRC C67564A5
Copy OK

Track 9
Filename D:\FLAC\Clarence Reid - Dancin' With Nobody But You Babe (1969) [FLAC] {Japan pressing}\09 - Shop Around.wav

Pre-gap length 0:00:03.37

Peak level 78.4 %
Track quality 99.9 %
Test CRC BDE5A9DC
Copy CRC BDE5A9DC
Copy OK

Track 10
Filename D:\FLAC\Clarence Reid - Dancin' With Nobody But You Babe (1969) [FLAC] {Japan pressing}\10 - Fools Are Not Born.wav

Pre-gap length 0:00:02.80

Peak level 74.3 %
Track quality 100.0 %
Test CRC F109A166
Copy CRC F109A166
Copy OK

Track 11
Filename D:\FLAC\Clarence Reid - Dancin' With Nobody But You Babe (1969) [FLAC] {Japan pressing}\11 - Polk Salad Annie.wav

Pre-gap length 0:00:03.70

Peak level 100.0 %
Track quality 100.0 %
Test CRC C518E384
Copy CRC C518E384
Copy OK

Track 12
Filename D:\FLAC\Clarence Reid - Dancin' With Nobody But You Babe (1969) [FLAC] {Japan pressing}\12 - Send Me Back My Money.wav

Pre-gap length 0:00:04.60

Peak level 85.7 %
Track quality 100.0 %
Test CRC 0D85E29E
Copy CRC 0D85E29E
Copy OK

No errors occured


End of status report


Clarence Reid - Dancin' With Nobody But You Babe (1969) {1999 Atlantic CD} **[RE-UP]**