Subcategories

Cafe Del Mar - Volumen Trece (XIII) (2006)

Posted By: uff
Cafe Del Mar - Volumen Trece (XIII) (2006)

Cafe Del Mar - Volumen Trece (XIII) (2006)
Chillout | 2cd | EAC Rip | Flac + Cue + Log | covers
Cafe Del Mar, 01-2006-48 | rel: 2006 | 1250Mb

The remarkable thing about this volume is not that it's the 13th installment in the extremely popular Cafe Del Mar series but that they've managed to maintain the quality control and this is just as good as any of the first 12! Cafe del Mar is the perfect scenery to enjoy an exclusive fusion of light, water and sound; the primary icon of the cult of sunset, without any doubts, one of the most wonderful and incredible existing in the planet. With the first Volume, thirteen years ago, Caf‚ del Mar began to put music to sunset. Caf‚ del Mar's spirit has reached all the corners of the world. ~Amazon

Track listing
cd1:
01. Steen Thottrup Feat. Annette Berg - Heading For The Sunrise (5:43)
02. One Mind's Eye Feat. Elsieanne - Shiva (5:47)
03. Kitty The Bill - Mister Mista (3:58)
04. Gary B - Set Me Free (5:28)
05. Elenah - Cositas De La Vida (4:35)
06. Ritmo Intacto - Indigena (5:43)
07. E-Love - Cause I Love You No More (Alster Lounge Chill Out Vocal Mix) (4:38)
08. Slaven Kolak - Panonia (4:41)
09. Roberto Sol - So Awesome (4:41)
10. DAB - Pure Joy (5:20)
11. Ivan Tucakov - Cinnabar Mix (6:36)
12. Triangle Sun - Beautiful (4:41)
13. Gelka - Os Pastores Da Noitte (4:45)
14. Future Loop Foundation - Monika's Summer (6:07)
15. Alejandro De Pinedo - Capricorn (4:53)

cd2:
01. Nera & Felix - Del Mar (4:45)
02. La Caina - No Talking (5:34)
03. Ibizarre - Las Brisas (5:38)
04. Rue Du Soleil - Angel Eyes (5:19)
05. Singas Project - Voice (3:57)
06. Melibea - Lamento (4:55)
07. Yann Kuhlmann Feat. Fuego - Hablo Del Amor (4:43)
08. Mads Arp Feat. Julie Harrington - The Meaning Of Love (4:49)
09. Paco Fernandez - Flores De Libertad (6:41)
10. Jeff Bennet's Lounge Experience Feat. Alexandra - Sympathy (5:44)
11. Luminous Feat. Julie Harrington - Let You In (5:01)
12. Pep Llado Feat. Antonio Martinez 'El Nono' - Vai Vedere (5:46)
13. Hey Negrita - One Mississippi (Chris Coco Mix) (5:50)
14. Victor G. De La Fuente Feat. Oscar Portugues - Tu Despertar (Original Chill Mix) (5:48)
15. Viggo Feat. Glow - Rivers Flow (4:47)


Exact Audio Copy V1.0 beta 3 from 29. August 2011

EAC extraction logfile from 31. August 2014, 16:15

Cafe Del Mar XIII (Trece) / Café Del Mar XIII - CD1

Used drive : ASUS DRW-24B3ST Adapter: 3 ID: 0

Read mode : Secure
Utilize accurate stream : Yes
Defeat audio cache : Yes
Make use of C2 pointers : No

Read offset correction : 6
Overread into Lead-In and Lead-Out : No
Fill up missing offset samples with silence : Yes
Delete leading and trailing silent blocks : No
Null samples used in CRC calculations : Yes
Used interface : Native Win32 interface for Win NT & 2000
Gap handling : Appended to previous track

Used output format : User Defined Encoder
Selected bitrate : 896 kBit/s
Quality : High
Add ID3 tag : No
Command line compressor : C:\Program Files (x86)\Exact Audio Copy\Flac\flac.exe
Additional command line options : -8 -V -T "ARTIST=%artist%" -T "TITLE=%title%" -T "ALBUM=%albumtitle%" -T "DATE=%year%" -T "TRACKNUMBER=%tracknr%" -T "GENRE=%genre%" -T "COMMENT=ripped by Oleandris" %source%


TOC of the extracted CD

Track | Start | Length | Start sector | End sector
––––––––––––––––––––––––––––-
1 | 0:00.00 | 5:45.22 | 0 | 25896
2 | 5:45.22 | 5:49.72 | 25897 | 52143
3 | 11:35.19 | 4:00.52 | 52144 | 70195
4 | 15:35.71 | 5:30.49 | 70196 | 94994
5 | 21:06.45 | 4:37.46 | 94995 | 115815
6 | 25:44.16 | 5:45.72 | 115816 | 141762
7 | 31:30.13 | 4:40.47 | 141763 | 162809
8 | 36:10.60 | 4:43.55 | 162810 | 184089
9 | 40:54.40 | 4:43.63 | 184090 | 205377
10 | 45:38.28 | 5:22.62 | 205378 | 229589
11 | 51:01.15 | 6:38.12 | 229590 | 259451
12 | 57:39.27 | 4:43.21 | 259452 | 280697
13 | 62:22.48 | 4:47.60 | 280698 | 302282
14 | 67:10.33 | 6:09.26 | 302283 | 329983
15 | 73:19.59 | 4:53.29 | 329984 | 351987


Track 1

Filename F:\ЗАГРУЗКИ\ Cafe Del Mar Collection XI-XIII (2004-2006)\Cafe Del Mar XIII (Volumen Doce) 2CD (2006)\CD1\01. Steen Thottrup Feat. Annette Berg - Heading For The Sunrise.wav

Pre-gap length 0:00:02.00

Peak level 98.8 %
Extraction speed 3.5 X
Track quality 99.9 %
Test CRC 3FE21C9E
Copy CRC 3FE21C9E
Accurately ripped (confidence 39) [B3925F05] (AR v2)
Copy OK

Track 2

Filename F:\ЗАГРУЗКИ\ Cafe Del Mar Collection XI-XIII (2004-2006)\Cafe Del Mar XIII (Volumen Doce) 2CD (2006)\CD1\02. One Mind's Eye Feat. Elsieanne - Shiva.wav

Pre-gap length 0:00:02.00

Peak level 98.8 %
Extraction speed 4.6 X
Track quality 100.0 %
Test CRC 94423CF2
Copy CRC 94423CF2
Accurately ripped (confidence 40) [2632554B] (AR v2)
Copy OK

Track 3

Filename F:\ЗАГРУЗКИ\ Cafe Del Mar Collection XI-XIII (2004-2006)\Cafe Del Mar XIII (Volumen Doce) 2CD (2006)\CD1\03. Kitty The Bill - Mister Mista.wav

Pre-gap length 0:00:02.00

Peak level 98.8 %
Extraction speed 3.9 X
Track quality 99.9 %
Test CRC 4B142F89
Copy CRC 4B142F89
Accurately ripped (confidence 40) [7852DA87] (AR v2)
Copy OK

Track 4

Filename F:\ЗАГРУЗКИ\ Cafe Del Mar Collection XI-XIII (2004-2006)\Cafe Del Mar XIII (Volumen Doce) 2CD (2006)\CD1\04. Gary B - Set Me Free.wav

Pre-gap length 0:00:02.00

Peak level 98.8 %
Extraction speed 4.5 X
Track quality 99.9 %
Test CRC 9A2C2266
Copy CRC 9A2C2266
Accurately ripped (confidence 40) [7D2118DF] (AR v2)
Copy OK

Track 5

Filename F:\ЗАГРУЗКИ\ Cafe Del Mar Collection XI-XIII (2004-2006)\Cafe Del Mar XIII (Volumen Doce) 2CD (2006)\CD1\05. Elenah - Cositas De La Vida.wav

Pre-gap length 0:00:02.00

Peak level 98.8 %
Extraction speed 5.5 X
Track quality 100.0 %
Test CRC 70426E80
Copy CRC 70426E80
Accurately ripped (confidence 40) [4DAE37B3] (AR v2)
Copy OK

Track 6

Filename F:\ЗАГРУЗКИ\ Cafe Del Mar Collection XI-XIII (2004-2006)\Cafe Del Mar XIII (Volumen Doce) 2CD (2006)\CD1\06. Ritmo Intacto - Indígena.wav

Pre-gap length 0:00:02.00

Peak level 98.8 %
Extraction speed 5.9 X
Track quality 100.0 %
Test CRC 32BB52F7
Copy CRC 32BB52F7
Accurately ripped (confidence 40) [DFCCB8E1] (AR v2)
Copy OK

Track 7

Filename F:\ЗАГРУЗКИ\ Cafe Del Mar Collection XI-XIII (2004-2006)\Cafe Del Mar XIII (Volumen Doce) 2CD (2006)\CD1\07. E-Love - Cause I Love You No More (Alster Lounge Chill Out Vocal Mix).wav

Pre-gap length 0:00:02.00

Peak level 98.8 %
Extraction speed 6.1 X
Track quality 100.0 %
Test CRC 0C3C0DE6
Copy CRC 0C3C0DE6
Accurately ripped (confidence 39) [B804E49B] (AR v2)
Copy OK

Track 8

Filename F:\ЗАГРУЗКИ\ Cafe Del Mar Collection XI-XIII (2004-2006)\Cafe Del Mar XIII (Volumen Doce) 2CD (2006)\CD1\08. Slaven Kolak - Panonia.wav

Pre-gap length 0:00:02.00

Peak level 98.8 %
Extraction speed 6.4 X
Track quality 100.0 %
Test CRC 2C574536
Copy CRC 2C574536
Accurately ripped (confidence 39) [A5731A79] (AR v2)
Copy OK

Track 9

Filename F:\ЗАГРУЗКИ\ Cafe Del Mar Collection XI-XIII (2004-2006)\Cafe Del Mar XIII (Volumen Doce) 2CD (2006)\CD1\09. Roberto Sol - So Awesome.wav

Pre-gap length 0:00:02.00

Peak level 98.8 %
Extraction speed 5.5 X
Track quality 99.9 %
Test CRC DD5707D8
Copy CRC DD5707D8
Accurately ripped (confidence 40) [252732C6] (AR v2)
Copy OK

Track 10

Filename F:\ЗАГРУЗКИ\ Cafe Del Mar Collection XI-XIII (2004-2006)\Cafe Del Mar XIII (Volumen Doce) 2CD (2006)\CD1\10. DAB - Pure Joy.wav

Pre-gap length 0:00:02.00

Peak level 98.8 %
Extraction speed 7.0 X
Track quality 100.0 %
Test CRC 74A2DD90
Copy CRC 74A2DD90
Accurately ripped (confidence 40) [D3FCEB44] (AR v2)
Copy OK

Track 11

Filename F:\ЗАГРУЗКИ\ Cafe Del Mar Collection XI-XIII (2004-2006)\Cafe Del Mar XIII (Volumen Doce) 2CD (2006)\CD1\11. Ivan Tucakov - Cinnabar Mix.wav

Pre-gap length 0:00:02.00

Peak level 98.8 %
Extraction speed 7.4 X
Track quality 100.0 %
Test CRC 6B5BCBD3
Copy CRC 6B5BCBD3
Accurately ripped (confidence 40) [BFCEEEF5] (AR v2)
Copy OK

Track 12

Filename F:\ЗАГРУЗКИ\ Cafe Del Mar Collection XI-XIII (2004-2006)\Cafe Del Mar XIII (Volumen Doce) 2CD (2006)\CD1\12. Triangle Sun - Beautiful.wav

Pre-gap length 0:00:02.00

Peak level 98.8 %
Extraction speed 7.5 X
Track quality 100.0 %
Test CRC EF5C197C
Copy CRC EF5C197C
Accurately ripped (confidence 39) [18CDC3BF] (AR v2)
Copy OK

Track 13

Filename F:\ЗАГРУЗКИ\ Cafe Del Mar Collection XI-XIII (2004-2006)\Cafe Del Mar XIII (Volumen Doce) 2CD (2006)\CD1\13. Gelka - Os Pastores Da Noitte.wav

Pre-gap length 0:00:02.00

Peak level 98.8 %
Extraction speed 6.3 X
Track quality 99.9 %
Test CRC F9A1454E
Copy CRC F9A1454E
Accurately ripped (confidence 38) [BCFDDA6A] (AR v2)
Copy OK

Track 14

Filename F:\ЗАГРУЗКИ\ Cafe Del Mar Collection XI-XIII (2004-2006)\Cafe Del Mar XIII (Volumen Doce) 2CD (2006)\CD1\14. Future Loop Foundation - Monika's Summer.wav

Pre-gap length 0:00:02.00

Peak level 98.8 %
Extraction speed 8.1 X
Track quality 100.0 %
Test CRC 3494B680
Copy CRC 3494B680
Accurately ripped (confidence 39) [9A72D19D] (AR v2)
Copy OK

Track 15

Filename F:\ЗАГРУЗКИ\ Cafe Del Mar Collection XI-XIII (2004-2006)\Cafe Del Mar XIII (Volumen Doce) 2CD (2006)\CD1\15. Alejandro De Pinedo - Capricorn.wav

Pre-gap length 0:00:02.00

Peak level 98.8 %
Extraction speed 8.1 X
Track quality 100.0 %
Test CRC C9FE0474
Copy CRC C9FE0474
Accurately ripped (confidence 39) [61C7948A] (AR v2)
Copy OK


All tracks accurately ripped

No errors occurred

End of status report

–– CUETools DB Plugin V2.1.3

[CTDB TOCID: MY6rypL4z5GB_UD8rnx5kEvnxXY-] found, Submit result: MY6rypL4z5GB_UD8rnx5kEvnxXY- has been confirmed
[3ed6dd32] (64/66) Accurately ripped
[dfa39907] (01/66) No match
[443449ad] (01/66) No match


==== Log checksum ADCF4602B8E055C6CD6BC3A0310A747F73AD41FCAC2E651852D0FBE79BE49A61 ====
–-
Exact Audio Copy V1.0 beta 3 from 29. August 2011

EAC extraction logfile from 31. August 2014, 21:10

Cafe Del Mar XIII (Volumen Trece) / Cafe Del Mar XIII - CD2

Used drive : ASUS DRW-24B3ST Adapter: 3 ID: 0

Read mode : Secure
Utilize accurate stream : Yes
Defeat audio cache : Yes
Make use of C2 pointers : No

Read offset correction : 6
Overread into Lead-In and Lead-Out : No
Fill up missing offset samples with silence : Yes
Delete leading and trailing silent blocks : No
Null samples used in CRC calculations : Yes
Used interface : Native Win32 interface for Win NT & 2000
Gap handling : Appended to previous track

Used output format : User Defined Encoder
Selected bitrate : 896 kBit/s
Quality : High
Add ID3 tag : No
Command line compressor : C:\Program Files (x86)\Exact Audio Copy\Flac\flac.exe
Additional command line options : -8 -V -T "ARTIST=%artist%" -T "TITLE=%title%" -T "ALBUM=%albumtitle%" -T "DATE=%year%" -T "TRACKNUMBER=%tracknr%" -T "GENRE=%genre%" -T "COMMENT=ripped by Oleandris" %source%


TOC of the extracted CD

Track | Start | Length | Start sector | End sector
––––––––––––––––––––––––––––-
1 | 0:00.00 | 4:47.55 | 0 | 21579
2 | 4:47.55 | 5:36.21 | 21580 | 46800
3 | 10:24.01 | 5:40.38 | 46801 | 72338
4 | 16:04.39 | 5:21.63 | 72339 | 96476
5 | 21:26.27 | 3:59.21 | 96477 | 114422
6 | 25:25.48 | 4:57.38 | 114423 | 136735
7 | 30:23.11 | 4:45.16 | 136736 | 158126
8 | 35:08.27 | 4:51.44 | 158127 | 179995
9 | 39:59.71 | 6:43.55 | 179996 | 210275
10 | 46:43.51 | 5:46.56 | 210276 | 236281
11 | 52:30.32 | 5:03.23 | 236282 | 259029
12 | 57:33.55 | 5:48.59 | 259030 | 285188
13 | 63:22.39 | 5:52.72 | 285189 | 311660
14 | 69:15.36 | 5:50.61 | 311661 | 337971
15 | 75:06.22 | 4:47.05 | 337972 | 359501


Track 1

Filename F:\ЗАГРУЗКИ\ Cafe Del Mar Collection XI-XIII (2004-2006)\Cafe Del Mar XIII (Volumen Doce) 2CD (2006)\CD2\01. Nera & Felix - Del Mar.wav

Pre-gap length 0:00:02.00

Peak level 98.8 %
Extraction speed 3.9 X
Track quality 100.0 %
Test CRC 786808A5
Copy CRC 786808A5
Accurately ripped (confidence 38) [65E18D6B] (AR v2)
Copy OK

Track 2

Filename F:\ЗАГРУЗКИ\ Cafe Del Mar Collection XI-XIII (2004-2006)\Cafe Del Mar XIII (Volumen Doce) 2CD (2006)\CD2\02. La Caina - No Talking.wav

Pre-gap length 0:00:02.00

Peak level 98.8 %
Extraction speed 3.8 X
Track quality 99.9 %
Test CRC 89749731
Copy CRC 89749731
Accurately ripped (confidence 39) [D5C094DD] (AR v2)
Copy OK

Track 3

Filename F:\ЗАГРУЗКИ\ Cafe Del Mar Collection XI-XIII (2004-2006)\Cafe Del Mar XIII (Volumen Doce) 2CD (2006)\CD2\03. Ibizarre - Las Brisas.wav

Pre-gap length 0:00:02.00

Peak level 98.8 %
Extraction speed 5.0 X
Track quality 100.0 %
Test CRC 4C6471FD
Copy CRC 4C6471FD
Accurately ripped (confidence 39) [21E47B1D] (AR v2)
Copy OK

Track 4

Filename F:\ЗАГРУЗКИ\ Cafe Del Mar Collection XI-XIII (2004-2006)\Cafe Del Mar XIII (Volumen Doce) 2CD (2006)\CD2\04. Rue Du Soleil - Angel Eyes.wav

Pre-gap length 0:00:02.00

Peak level 98.8 %
Extraction speed 5.3 X
Track quality 100.0 %
Test CRC 5FA2ADE4
Copy CRC 5FA2ADE4
Accurately ripped (confidence 39) [DEE2D0BA] (AR v2)
Copy OK

Track 5

Filename F:\ЗАГРУЗКИ\ Cafe Del Mar Collection XI-XIII (2004-2006)\Cafe Del Mar XIII (Volumen Doce) 2CD (2006)\CD2\05. Singas Project - Voice.wav

Pre-gap length 0:00:02.00

Peak level 98.8 %
Extraction speed 5.5 X
Track quality 100.0 %
Test CRC 97B06362
Copy CRC 97B06362
Accurately ripped (confidence 39) [0D879D69] (AR v2)
Copy OK

Track 6

Filename F:\ЗАГРУЗКИ\ Cafe Del Mar Collection XI-XIII (2004-2006)\Cafe Del Mar XIII (Volumen Doce) 2CD (2006)\CD2\06. Melibea - Lamento.wav

Pre-gap length 0:00:02.00

Peak level 98.8 %
Extraction speed 5.8 X
Track quality 100.0 %
Test CRC C950C12A
Copy CRC C950C12A
Accurately ripped (confidence 39) [EC9C8D6B] (AR v2)
Copy OK

Track 7

Filename F:\ЗАГРУЗКИ\ Cafe Del Mar Collection XI-XIII (2004-2006)\Cafe Del Mar XIII (Volumen Doce) 2CD (2006)\CD2\07. Yann Kuhlmann Feat. Fuego - Hablo Del Amor.wav

Pre-gap length 0:00:02.00

Peak level 98.8 %
Extraction speed 5.0 X
Track quality 99.9 %
Test CRC B4A77C8B
Copy CRC B4A77C8B
Accurately ripped (confidence 39) [5B9E9C7F] (AR v2)
Copy OK

Track 8

Filename F:\ЗАГРУЗКИ\ Cafe Del Mar Collection XI-XIII (2004-2006)\Cafe Del Mar XIII (Volumen Doce) 2CD (2006)\CD2\08. Mads Arp Feat. Julie Harrington - The Meaning Of Love.wav

Pre-gap length 0:00:02.00

Peak level 98.8 %
Extraction speed 6.4 X
Track quality 100.0 %
Test CRC 745F5821
Copy CRC 745F5821
Accurately ripped (confidence 39) [06476EDA] (AR v2)
Copy OK

Track 9

Filename F:\ЗАГРУЗКИ\ Cafe Del Mar Collection XI-XIII (2004-2006)\Cafe Del Mar XIII (Volumen Doce) 2CD (2006)\CD2\09. Paco Fernandez - Flores De Libertad.wav

Pre-gap length 0:00:02.00

Peak level 98.8 %
Extraction speed 5.9 X
Track quality 99.9 %
Test CRC 0FECC7AF
Copy CRC 0FECC7AF
Accurately ripped (confidence 39) [8091C434] (AR v2)
Copy OK

Track 10

Filename F:\ЗАГРУЗКИ\ Cafe Del Mar Collection XI-XIII (2004-2006)\Cafe Del Mar XIII (Volumen Doce) 2CD (2006)\CD2\10. Jeff Bennet's Lounge Experience Feat. Alexandra - Sympathy.wav

Pre-gap length 0:00:02.00

Peak level 98.8 %
Extraction speed 7.0 X
Track quality 100.0 %
Test CRC A2280F7B
Copy CRC A2280F7B
Accurately ripped (confidence 39) [06C133BD] (AR v2)
Copy OK

Track 11

Filename F:\ЗАГРУЗКИ\ Cafe Del Mar Collection XI-XIII (2004-2006)\Cafe Del Mar XIII (Volumen Doce) 2CD (2006)\CD2\11. Luminous Feat. Julie Harrington - Let You In.wav

Pre-gap length 0:00:02.00

Peak level 98.8 %
Extraction speed 7.2 X
Track quality 100.0 %
Test CRC A9B6EF12
Copy CRC A9B6EF12
Accurately ripped (confidence 39) [6D7B3C0B] (AR v2)
Copy OK

Track 12

Filename F:\ЗАГРУЗКИ\ Cafe Del Mar Collection XI-XIII (2004-2006)\Cafe Del Mar XIII (Volumen Doce) 2CD (2006)\CD2\12. Pep Llado Feat. Antonio Martinez ''El Nono'' - Vai Vedere.wav

Pre-gap length 0:00:02.00

Peak level 98.8 %
Extraction speed 7.6 X
Track quality 100.0 %
Test CRC DCF97DDA
Copy CRC DCF97DDA
Accurately ripped (confidence 39) [80C76A73] (AR v2)
Copy OK

Track 13

Filename F:\ЗАГРУЗКИ\ Cafe Del Mar Collection XI-XIII (2004-2006)\Cafe Del Mar XIII (Volumen Doce) 2CD (2006)\CD2\13. Hey Negrita - One Mississippi (Chris Coco Mix).wav

Pre-gap length 0:00:02.00

Peak level 98.8 %
Extraction speed 7.9 X
Track quality 100.0 %
Test CRC 2CCF8F6A
Copy CRC 2CCF8F6A
Accurately ripped (confidence 39) [585D3294] (AR v2)
Copy OK

Track 14

Filename F:\ЗАГРУЗКИ\ Cafe Del Mar Collection XI-XIII (2004-2006)\Cafe Del Mar XIII (Volumen Doce) 2CD (2006)\CD2\14. Víctor G. De La Fuente Feat. Oscar Portugues - Tu Despertar (Original Chill Mix).wav

Pre-gap length 0:00:02.00

Peak level 98.8 %
Extraction speed 8.1 X
Track quality 100.0 %
Test CRC 7DE47EBD
Copy CRC 7DE47EBD
Accurately ripped (confidence 38) [2BAA972A] (AR v2)
Copy OK

Track 15

Filename F:\ЗАГРУЗКИ\ Cafe Del Mar Collection XI-XIII (2004-2006)\Cafe Del Mar XIII (Volumen Doce) 2CD (2006)\CD2\15. Viggo Feat. Glow - Rivers Flow.wav

Pre-gap length 0:00:02.00

Peak level 98.8 %
Extraction speed 8.1 X
Track quality 100.0 %
Test CRC 657FCB5E
Copy CRC 657FCB5E
Accurately ripped (confidence 39) [5F071F57] (AR v2)
Copy OK


All tracks accurately ripped

No errors occurred

End of status report

–– CUETools DB Plugin V2.1.3

[CTDB TOCID: Z3sHeKGkBJGVDYdHo37kA2uA37k-] found, Submit result: Z3sHeKGkBJGVDYdHo37kA2uA37k- has been confirmed
[9571d021] (61/64) Accurately ripped
[2c85787c] (01/64) No match
[b476e24f] (01/64) No match
[e9509da9] (01/64) No match


==== Log checksum CF4B75621574A74BE3737B8112B4470BA72DE2305CCF795B2BAB0C80E1626840 ====





[CUETools log; Date: 2016. 06. 06. 11:54:29; Version: 2.1.6]
[CTDB TOCID: MY6rypL4z5GB_UD8rnx5kEvnxXY-] found.
Track | CTDB Status
1 | (51/55) Accurately ripped
2 | (52/55) Accurately ripped
3 | (53/55) Accurately ripped
4 | (52/55) Accurately ripped
5 | (53/55) Accurately ripped
6 | (53/55) Accurately ripped
7 | (53/55) Accurately ripped
8 | (53/55) Accurately ripped
9 | (53/55) Accurately ripped
10 | (52/55) Accurately ripped
11 | (53/55) Accurately ripped
12 | (52/55) Accurately ripped
13 | (53/55) Accurately ripped
14 | (52/55) Accurately ripped
15 | (52/55) Accurately ripped
[AccurateRip ID: 002ad52c-01e4b533-d612550f] found.
Track [ CRC | V2 ] Status
01 [9f31dc0f|b3925f05] (045+052/100) Accurately ripped
02 [4a0ea8c1|2632554b] (044+053/100) Accurately ripped
03 [c062888a|7852da87] (045+053/101) Accurately ripped
04 [45a2afa2|7d2118df] (044+053/100) Accurately ripped
05 [c972de0d|4dae37b3] (044+053/100) Accurately ripped
06 [9974c3c2|dfccb8e1] (045+053/101) Accurately ripped
07 [e8a52c02|b804e49b] (042+052/097) Accurately ripped
08 [a2e31a30|a5731a79] (044+052/099) Accurately ripped
09 [b0771fb8|252732c6] (043+053/099) Accurately ripped
10 [5fd4685e|d3fceb44] (043+053/098) Accurately ripped
11 [faac259e|bfceeef5] (043+053/099) Accurately ripped
12 [d1fa4711|18cdc3bf] (043+052/098) Accurately ripped
13 [1820c943|bcfdda6a] (044+052/099) Accurately ripped
14 [de2dc184|9a72d19d] (045+052/100) Accurately ripped
15 [72a70452|61c7948a] (043+052/097) Accurately ripped
Offsetted by -679:
01 [d651f93a] (000/100) No match (V2 was not tested)
02 [6f63c6bb] (003/100) Accurately ripped
03 [1cff0ea1] (003/101) Accurately ripped
04 [2df94848] (003/100) Accurately ripped
05 [247294e9] (003/100) Accurately ripped
06 [7a021d54] (003/101) Accurately ripped
07 [69acf27e] (003/097) Accurately ripped
08 [722622b8] (003/099) Accurately ripped
09 [7bf76762] (003/099) Accurately ripped
10 [4f783359] (002/098) Accurately ripped
11 [979ddd03] (003/099) Accurately ripped
12 [754589f4] (003/098) Accurately ripped
13 [ddd39796] (003/099) Accurately ripped
14 [33708572] (003/100) Accurately ripped
15 [14f8cc1d] (002/097) Accurately ripped
Offsetted by -66:
01 [8d66bb5c] (000/100) No match (V2 was not tested)
02 [25b8ad2d] (000/100) No match (V2 was not tested)
03 [ed344aec] (000/101) No match (V2 was not tested)
04 [2d77d3f6] (000/100) No match (V2 was not tested)
05 [764cc295] (000/100) No match (V2 was not tested)
06 [6aaa177e] (000/101) No match (V2 was not tested)
07 [524ff74a] (000/097) No match (V2 was not tested)
08 [647700a0] (000/099) No match (V2 was not tested)
09 [95df35c4] (000/099) No match (V2 was not tested)
10 [44fa92b8] (000/098) No match (V2 was not tested)
11 [2f40d084] (000/099) No match (V2 was not tested)
12 [f3f2831b] (000/098) No match (V2 was not tested)
13 [9124376d] (000/099) No match (V2 was not tested)
14 [6b8e5ac8] (000/100) No match (V2 was not tested)
15 [1a425a86] (000/097) No match

Track Peak [ CRC32 ] [W/O NULL] [ LOG ]
– 98,8 [CEB75589] [779E1A0A]
01 98,8 [3FE21C9E] [4C52272E] CRC32
02 98,8 [94423CF2] [EB8F7DF9] CRC32
03 98,8 [4B142F89] [7BDDCFC8] CRC32
04 98,8 [9A2C2266] [082B2E0F] CRC32
05 98,8 [70426E80] [F33FC189] CRC32
06 98,8 [32BB52F7] [BB4292A6] CRC32
07 98,8 [0C3C0DE6] [39139489] CRC32
08 98,8 [2C574536] [F10CC6DD] CRC32
09 98,8 [DD5707D8] [D5E18F2A] CRC32
10 98,8 [74A2DD90] [3ACC48A0] CRC32
11 98,8 [6B5BCBD3] [A81CEED9] CRC32
12 98,8 [EF5C197C] [83574AC5] CRC32
13 98,8 [F9A1454E] [B226D398] CRC32
14 98,8 [3494B680] [0FD6DA0D] CRC32
15 98,8 [C9FE0474] [09EC41E0] CRC32
–-

[CUETools log; Date: 2016. 06. 06. 11:55:01; Version: 2.1.6]
[CTDB TOCID: Z3sHeKGkBJGVDYdHo37kA2uA37k-] found.
Track | CTDB Status
1 | (54/56) Accurately ripped
2 | (53/56) Accurately ripped
3 | (55/56) Accurately ripped
4 | (53/56) Accurately ripped
5 | (52/56) Accurately ripped
6 | (54/56) Accurately ripped
7 | (54/56) Accurately ripped
8 | (53/56) Accurately ripped
9 | (54/56) Accurately ripped
10 | (54/56) Accurately ripped
11 | (52/56) Accurately ripped
12 | (52/56) Accurately ripped
13 | (52/56) Accurately ripped
14 | (50/56) Accurately ripped
15 | (50/56) Accurately ripped
[AccurateRip ID: 002b2097-01eb2098-d112b90f] found.
Track [ CRC | V2 ] Status
01 [df124ecc|65e18d6b] (42+52/96) Accurately ripped
02 [1ebf4f9c|d5c094dd] (43+53/98) Accurately ripped
03 [b486fb01|21e47b1d] (43+53/98) Accurately ripped
04 [3f4535c5|dee2d0ba] (43+53/98) Accurately ripped
05 [9f5f4f7b|0d879d69] (43+53/98) Accurately ripped
06 [a8e640b8|ec9c8d6b] (43+53/98) Accurately ripped
07 [be41429b|5b9e9c7f] (43+53/98) Accurately ripped
08 [8c2aac90|06476eda] (43+53/98) Accurately ripped
09 [aa98ef42|8091c434] (43+53/98) Accurately ripped
10 [502fd73c|06c133bd] (43+53/98) Accurately ripped
11 [9f40a694|6d7b3c0b] (43+53/98) Accurately ripped
12 [97f22495|80c76a73] (43+53/98) Accurately ripped
13 [6c21a6e5|585d3294] (43+53/98) Accurately ripped
14 [cfa6061e|2baa972a] (42+51/95) Accurately ripped
15 [c5fa2457|5f071f57] (42+52/94) Accurately ripped
Offsetted by -66:
01 [498569ea] (02/96) Accurately ripped
02 [9032a39c] (02/98) Accurately ripped
03 [61fb3a5f] (02/98) Accurately ripped
04 [917b4f47] (02/98) Accurately ripped
05 [af92dea7] (02/98) Accurately ripped
06 [2ba8d192] (02/98) Accurately ripped
07 [f5218321] (02/98) Accurately ripped
08 [afbf019a] (02/98) Accurately ripped
09 [c6444d9a] (02/98) Accurately ripped
10 [7b62cdce] (02/98) Accurately ripped
11 [0590ece4] (02/98) Accurately ripped
12 [152e3b49] (02/98) Accurately ripped
13 [5003c79b] (02/98) Accurately ripped
14 [706b9b82] (02/95) Accurately ripped
15 [99605e2d] (00/94) No match (V2 was not tested)

Track Peak [ CRC32 ] [W/O NULL] [ LOG ]
– 98,8 [0E6F726E] [E5720BB6]
01 98,8 [786808A5] [A27856D1] CRC32
02 98,8 [89749731] [E94F9E20] CRC32
03 98,8 [4C6471FD] [88C0A350] CRC32
04 98,8 [5FA2ADE4] [1E9D4873] CRC32
05 98,8 [97B06362] [F06306D6] CRC32
06 98,8 [C950C12A] [74351FC9] CRC32
07 98,8 [B4A77C8B] [07A93A81] CRC32
08 98,8 [745F5821] [F74C7836] CRC32
09 98,8 [0FECC7AF] [A36E7104] CRC32
10 98,8 [A2280F7B] [9A111E43] CRC32
11 98,8 [A9B6EF12] [B006C445] CRC32
12 98,8 [DCF97DDA] [6C95DE55] CRC32
13 98,8 [2CCF8F6A] [FA4ED188] CRC32
14 98,8 [7DE47EBD] [4DF45037] CRC32
15 98,8 [657FCB5E] [572EF14F] CRC32


Thx to Oleandris
Bigfile
Yunfile

password: asd