Tags
Language
Tags

Cal Tjader - Cal Tjader Plays the Contemporary Music of Mexico and Brazil (1962) [Reissue 2008] (Repost)

Posted By: gribovar
Cal Tjader - Cal Tjader Plays the Contemporary Music of Mexico and Brazil (1962) [Reissue 2008] (Repost)

Cal Tjader - Cal Tjader Plays the Contemporary Music of Mexico and Brazil (1962) [Reissue 2008]
EAC Rip | FLAC (image+.cue+log) - 202 MB | MP3 CBR 320 kbps (LAME 3.93) - 96 MB | Covers (8 MB) included
Genre: Latin Jazz, Bossa Nova | RAR 3% Rec. | Label: Verve Records (06025117823952)

This 1962 set by Cal Tjader, recorded at the beginning of the bossa nova craze in the United States (released in the same year and on the same label as the smash Jazz Samba by Stan Getz and Charlie Byrd), has one of the most boring titles imaginable, and it doesn't begin to describe the laid-back yet magical innovations in the grooves. Produced by Creed Taylor, the date was arranged and orchestrated by the great pianist Clare Fischer (who also wrote the liner notes). Tjader set out to offer a very modern portrait of the music pouring out of Mexico City by showcasing selected Mario Ruíz Armengol compositions, and out of Brazil by spotlighting numbers by singers such as Elisete Cardoso and João Gilberto. Tjader's vibes are placed in juxtaposition with Fischer's piano and percussion by Changuito, Milt Holland, and Johnny Rae, with a woodwind section that included both Don Shelton and Paul Horn, and even some wordless exotica vocals by Ardeen DeCamp. In addition, Brazilian guitar star Laurindo Almeida helps out on about half the set and contributed "Chôro e Batuque," while Fischer offers "Elisete," named for the singer. The feel here is gentle with infectious rhythms and beautifully wrought woodwinds (check "Se é Tarde, Me Perdoa"), gorgeous piano, and spacious vibes. The arrangements by Fischer certainly represent the era, but they endure into the 21st century because of the shining example of interplay between the percussion and melodies (note the breezy "Silenciosa"). Tjader had been playing samba on records for a number of years by this point, and worked with Getz in 1957, but this was the first place he allowed his own complex yet delightfully subtle melodic (rather than just rhythmic) sensibilities to shine on the vibes. The most remarkable thing about this set is how effortlessly the two traditions blend.
Tracklist:
01. Vai Querer
02. Qué Tristeza
03. Meditação
04. Soñé
05. Se é Tarde, Me Perdoa
06. Não Diga Nada
07. Silenciosa
08. Elizete
09. Imagen
10. Tentaçao do Inconveniente
11. Preciosa
12. Chôro e Batuque

Total time: 37:11

Exact Audio Copy V0.99 prebeta 4 from 23. January 2008

EAC extraction logfile from 4. December 2008, 22:40

Cal Tjader / Cal Tjader Plays the Contemporary Music of Mexico and Brazil

Used drive : PHILIPS SPD3400CC Adapter: 2 ID: 4

Read mode : Secure
Utilize accurate stream : Yes
Defeat audio cache : Yes
Make use of C2 pointers : No

Read offset correction : 6
Overread into Lead-In and Lead-Out : No
Fill up missing offset samples with silence : Yes
Delete leading and trailing silent blocks : No
Null samples used in CRC calculations : Yes
Used interface : Installed external ASPI interface

Used output format : Internal WAV Routines
Sample format : 44.100 Hz; 16 Bit; Stereo


TOC of the extracted CD

Track | Start | Length | Start sector | End sector
––––––––––––––––––––––––––––-
1 | 0:00.00 | 3:03.53 | 0 | 13777
2 | 3:03.53 | 2:50.33 | 13778 | 26560
3 | 5:54.11 | 3:33.06 | 26561 | 42541
4 | 9:27.17 | 3:09.24 | 42542 | 56740
5 | 12:36.41 | 2:50.49 | 56741 | 69539
6 | 15:27.15 | 2:48.03 | 69540 | 82142
7 | 18:15.18 | 3:27.55 | 82143 | 97722
8 | 21:42.73 | 2:30.61 | 97723 | 109033
9 | 24:13.59 | 2:41.28 | 109034 | 121136
10 | 26:55.12 | 2:33.31 | 121137 | 132642
11 | 29:28.43 | 2:40.56 | 132643 | 144698
12 | 32:09.24 | 5:01.51 | 144699 | 167324


Range status and errors

Selected range

Filename C:\Cal Tjader\Cal Tjader - Cal Tjader Plays the Contemporary Music of Mexico and Brazil.wav

Peak level 98.8 %
Range quality 100.0 %
Test CRC B855CEDE
Copy CRC B855CEDE
Copy OK

No errors occurred


AccurateRip summary

Track 1 not present in database
Track 2 not present in database
Track 3 not present in database
Track 4 not present in database
Track 5 not present in database
Track 6 not present in database
Track 7 not present in database
Track 8 not present in database
Track 9 not present in database
Track 10 not present in database
Track 11 not present in database
Track 12 not present in database

None of the tracks are present in the AccurateRip database

End of status report

[CUETools log; Date: 01.02.2018 18:03:12; Version: 2.1.4]
[CTDB TOCID: KZLUW9.VaWGhcYrsvK0i2k5vnpM-] found.
Track | CTDB Status
1 | (9/9) Accurately ripped
2 | (9/9) Accurately ripped
3 | (9/9) Accurately ripped
4 | (9/9) Accurately ripped
5 | (9/9) Accurately ripped
6 | (9/9) Accurately ripped
7 | (9/9) Accurately ripped
8 | (9/9) Accurately ripped
9 | (9/9) Accurately ripped
10 | (9/9) Accurately ripped
11 | (9/9) Accurately ripped
12 | (8/9) Accurately ripped
[AccurateRip ID: 00103bba-00970a04-ae08b70c] found.
Track [ CRC | V2 ] Status
01 [2995b458|3bc58135] (5+0/5) Accurately ripped
02 [0aa8574b|10c18faa] (5+0/5) Accurately ripped
03 [b26902a9|be959b4f] (5+0/5) Accurately ripped
04 [adb2dac7|95a927cb] (5+0/5) Accurately ripped
05 [93e94de4|8178323c] (5+0/5) Accurately ripped
06 [fc249ddb|ddaa2f05] (5+0/5) Accurately ripped
07 [e6c2cac4|05ddb98f] (5+0/5) Accurately ripped
08 [c2f062e9|05f66a88] (5+0/5) Accurately ripped
09 [3f2c52c9|d9eb5590] (5+0/5) Accurately ripped
10 [25b516f4|af454445] (5+0/5) Accurately ripped
11 [9e9f7d17|43b3465e] (5+0/5) Accurately ripped
12 [cb3eed2e|7289a361] (5+0/5) Accurately ripped

Track Peak [ CRC32 ] [W/O NULL] [ LOG ]
– 98,8 [B855CEDE] [3E8E7311] CRC32
01 79,9 [51B0E56C] [4F736D2F]
02 72,7 [17F793DA] [6DCE9444]
03 98,7 [2E9D3FE0] [6516C212]
04 98,8 [7E79EB10] [C2B40266]
05 78,1 [D473EFC4] [B78EC92F]
06 74,4 [506B1B68] [39BEFB53]
07 65,9 [AC82A524] [097E58F2]
08 98,8 [464836AD] [000B2321]
09 78,1 [BB263334] [DFD6E841]
10 98,2 [319A1CD5] [8010EB25]
11 64,7 [0F6EF86E] [563D46CF]
12 91,4 [5F1A22B2] [4AEC0ED8]

Thanks to tdelyon