Tags
Language
Tags

Cal Tjader - Four Classic Albums (1955-1959) [Reissue 2018]

Posted By: gribovar
Cal Tjader - Four Classic Albums (1955-1959) [Reissue 2018]

Cal Tjader - Four Classic Albums (1955-1959) [Reissue 2018]
EAC Rip | FLAC (tracks+.cue+log) - 862 MB | MP3 CBR 320 kbps (LAME 3.93) - 364 MB | Covers - 11 MB
Genre: Jazz, Latin Jazz | RAR 3% Rec. | Label: Avid Jazz (EMSC1318)

Avid Jazz continues with its Four Classic Album series with a re-mastered 2CD set release from Cal Tjader, complete with original artwork, liner notes and personnel details. “Tjader Plays Tjazz”; “San Francisco Moods”; “Concert By The Sea Volumes 1 & 2.”
There is a very small and very elite list of classic vibes players and Cal Tjader is certainly high up on that list. Primarily known as a Latin jazz musician, Cal was however a fine straight ahead cool jazz musician as our four fine selections will show. Take a listen to Tjader Plays Tjazz where the great man switches from vibes to drums on a cooled out straight ahead jazz set. For more cool, fun sounds try San Francisco Moods where Cal and gang capture the special atmosphere of his adopted city, San Francisco on an excellent, mostly Tjader composed set. And live, he was something else, as the double album set Concert By The Sea Volumes 1 & 2, considerd by many to be one of the high points of Cal’s career will show. Here Cal returns to his Latin influenced jazz to fabulously exhilarating effect, alongside such fine Latin musicians as Eddie Duran, Mongo Santamaria and Willie Bobo.
CD 1 Tracklist:

Tjader Plays Tjazz (1955):
01. Moten Swing
02. I’ve Never Been In Love Before
03. There Will Never Be Another You
04. How About You
05. Jeepers Creepers
06. A Minor Goof
07. My One And Only Love
08. Imagination
09. I’ll Know
10. Brew’s Blues

San Francisco Moods (1958):
11. Running Out
12. Raccoon Straits
13. The Last Luff
14. Sigmund Stern Groove
15. Coit Tower
16. Triple T Blues
17. Union Square
18. Skyline Waltz
19. Viva Cepeda
20. Grant Avenue Suite

Total time: 01:16:18

CD 2 Tracklist:

Concert By The Sea Vol. 1 (1959):
01. Doxie
02. Afro Blue
03. Laura
04. Walkin’ With Wally
05. We’ll Be Together Again
06. ‘Round About Midnight

Concert By The Sea Vol. 2 (1959):
07. Love Me Or Leave Me
08. Tu Crees Que
09. S.S. Groove
10. A Night In Tunisia
11. Bess, You Is My Woman Now
12. Lover Come Back To Me
13. Tumbao

Total time: 01:18:21

Exact Audio Copy V1.3 from 2. September 2016

EAC extraction logfile from 20. July 2020, 15:33

Cal Tjader / Four Classic Albums - CD1

Used drive : TSSTcorpCDDVDW SH-224FB Adapter: 1 ID: 0

Read mode : Secure
Utilize accurate stream : Yes
Defeat audio cache : Yes
Make use of C2 pointers : No

Read offset correction : 6
Overread into Lead-In and Lead-Out : No
Fill up missing offset samples with silence : Yes
Delete leading and trailing silent blocks : No
Null samples used in CRC calculations : Yes
Used interface : Native Win32 interface for Win NT & 2000
Gap handling : Appended to previous track

Used output format : User Defined Encoder
Selected bitrate : 128 kBit/s
Quality : High
Add ID3 tag : No
Command line compressor : C:\Program Files (x86)\Exact Audio Copy\Flac\flac.exe
Additional command line options : -V -8 -T "Genre=%genre%" -T "Artist=%artist%" -T "Title=%title%" -T "Album=%albumtitle%" -T "Date=%year%" -T "Tracknumber=%tracknr%" -T "Comment=%comment%" %source%


TOC of the extracted CD

Track | Start | Length | Start sector | End sector
––––––––––––––––––––––––––––-
1 | 0:00.00 | 4:04.73 | 0 | 18372
2 | 4:04.73 | 2:35.26 | 18373 | 30023
3 | 6:40.24 | 5:08.25 | 30024 | 53148
4 | 11:48.49 | 3:06.73 | 53149 | 67171
5 | 14:55.47 | 3:20.35 | 67172 | 82206
6 | 18:16.07 | 4:00.01 | 82207 | 100207
7 | 22:16.08 | 2:50.02 | 100208 | 112959
8 | 25:06.10 | 3:20.33 | 112960 | 127992
9 | 28:26.43 | 3:01.14 | 127993 | 141581
10 | 31:27.57 | 3:31.65 | 141582 | 157471
11 | 34:59.47 | 3:24.66 | 157472 | 172837
12 | 38:24.38 | 2:28.17 | 172838 | 183954
13 | 40:52.55 | 3:40.72 | 183955 | 200526
14 | 44:33.52 | 4:40.27 | 200527 | 221553
15 | 49:14.04 | 1:37.66 | 221554 | 228894
16 | 50:51.70 | 6:02.33 | 228895 | 256077
17 | 56:54.28 | 4:23.34 | 256078 | 275836
18 | 61:17.62 | 3:46.27 | 275837 | 292813
19 | 65:04.14 | 3:43.39 | 292814 | 309577
20 | 68:47.53 | 7:30.27 | 309578 | 343354


Track 1

Filename E:\ssagwebster\Cal Tjader - Four Classic Albums (2CD, 2018)\CD1\01. Moten Swing.wav

Pre-gap length 0:00:02.00

Peak level 100.0 %
Extraction speed 1.9 X
Track quality 100.0 %
Test CRC BDB623B2
Copy CRC BDB623B2
Accurately ripped (confidence 1) [2CF8A862] (AR v2)
Copy OK

Track 2

Filename E:\ssagwebster\Cal Tjader - Four Classic Albums (2CD, 2018)\CD1\02. I've Never Been In Love Before.wav

Pre-gap length 0:00:02.00

Peak level 53.9 %
Extraction speed 1.5 X
Track quality 99.9 %
Test CRC C1083CC5
Copy CRC C1083CC5
Accurately ripped (confidence 1) [E633DFAD] (AR v2)
Copy OK

Track 3

Filename E:\ssagwebster\Cal Tjader - Four Classic Albums (2CD, 2018)\CD1\03. There Will Never Be Another You.wav

Pre-gap length 0:00:02.00

Peak level 78.8 %
Extraction speed 2.2 X
Track quality 100.0 %
Test CRC A20BCECB
Copy CRC A20BCECB
Accurately ripped (confidence 1) [67A8E037] (AR v2)
Copy OK

Track 4

Filename E:\ssagwebster\Cal Tjader - Four Classic Albums (2CD, 2018)\CD1\04. How About You.wav

Pre-gap length 0:00:02.00

Peak level 94.5 %
Extraction speed 2.2 X
Track quality 100.0 %
Test CRC 5B3D646F
Copy CRC 5B3D646F
Accurately ripped (confidence 1) [7D580DFE] (AR v2)
Copy OK

Track 5

Filename E:\ssagwebster\Cal Tjader - Four Classic Albums (2CD, 2018)\CD1\05. Jeepers Creepers.wav

Pre-gap length 0:00:02.00

Peak level 82.4 %
Extraction speed 2.3 X
Track quality 100.0 %
Test CRC 56E408B9
Copy CRC 56E408B9
Accurately ripped (confidence 1) [DAF2A466] (AR v2)
Copy OK

Track 6

Filename E:\ssagwebster\Cal Tjader - Four Classic Albums (2CD, 2018)\CD1\06. A Minor Goof.wav

Pre-gap length 0:00:02.00

Peak level 85.4 %
Extraction speed 2.1 X
Track quality 99.9 %
Test CRC 102AED16
Copy CRC 102AED16
Accurately ripped (confidence 1) [FFA76CB2] (AR v2)
Copy OK

Track 7

Filename E:\ssagwebster\Cal Tjader - Four Classic Albums (2CD, 2018)\CD1\07. My One And Only Love.wav

Pre-gap length 0:00:02.00

Peak level 62.0 %
Extraction speed 2.5 X
Track quality 100.0 %
Test CRC 67C08FBD
Copy CRC 67C08FBD
Accurately ripped (confidence 1) [9C68658D] (AR v2)
Copy OK

Track 8

Filename E:\ssagwebster\Cal Tjader - Four Classic Albums (2CD, 2018)\CD1\08. Imagination.wav

Pre-gap length 0:00:02.00

Peak level 75.6 %
Extraction speed 2.7 X
Track quality 100.0 %
Test CRC C2A22C0B
Copy CRC C2A22C0B
Accurately ripped (confidence 1) [C13F6929] (AR v2)
Copy OK

Track 9

Filename E:\ssagwebster\Cal Tjader - Four Classic Albums (2CD, 2018)\CD1\09. I'll Know.wav

Pre-gap length 0:00:02.00

Peak level 63.7 %
Extraction speed 2.7 X
Track quality 100.0 %
Test CRC 813247BD
Copy CRC 813247BD
Accurately ripped (confidence 1) [F7828D09] (AR v2)
Copy OK

Track 10

Filename E:\ssagwebster\Cal Tjader - Four Classic Albums (2CD, 2018)\CD1\10. Brew's Blues.wav

Pre-gap length 0:00:02.00

Peak level 82.6 %
Extraction speed 2.9 X
Track quality 100.0 %
Test CRC 9E443116
Copy CRC 9E443116
Accurately ripped (confidence 1) [501F9674] (AR v2)
Copy OK

Track 11

Filename E:\ssagwebster\Cal Tjader - Four Classic Albums (2CD, 2018)\CD1\11. Running Out.wav

Pre-gap length 0:00:02.00

Peak level 88.7 %
Extraction speed 2.9 X
Track quality 100.0 %
Test CRC D0FD23ED
Copy CRC D0FD23ED
Accurately ripped (confidence 1) [0E289899] (AR v2)
Copy OK

Track 12

Filename E:\ssagwebster\Cal Tjader - Four Classic Albums (2CD, 2018)\CD1\12. Raccoon Strait.wav

Pre-gap length 0:00:02.00

Peak level 88.8 %
Extraction speed 2.8 X
Track quality 100.0 %
Test CRC 25881299
Copy CRC 25881299
Accurately ripped (confidence 1) [AE154CE1] (AR v2)
Copy OK

Track 13

Filename E:\ssagwebster\Cal Tjader - Four Classic Albums (2CD, 2018)\CD1\13. The Last Luff.wav

Pre-gap length 0:00:02.00

Peak level 88.7 %
Extraction speed 3.1 X
Track quality 100.0 %
Test CRC A445A26D
Copy CRC A445A26D
Accurately ripped (confidence 1) [37DF0E78] (AR v2)
Copy OK

Track 14

Filename E:\ssagwebster\Cal Tjader - Four Classic Albums (2CD, 2018)\CD1\14. Sigmund Stern Groove.wav

Pre-gap length 0:00:02.00

Peak level 84.0 %
Extraction speed 3.4 X
Track quality 100.0 %
Test CRC CD36FD83
Copy CRC CD36FD83
Accurately ripped (confidence 1) [BE286F05] (AR v2)
Copy OK

Track 15

Filename E:\ssagwebster\Cal Tjader - Four Classic Albums (2CD, 2018)\CD1\15. Coit Tower.wav

Pre-gap length 0:00:02.00

Peak level 88.7 %
Extraction speed 2.8 X
Track quality 100.0 %
Test CRC 19C71F59
Copy CRC 19C71F59
Accurately ripped (confidence 1) [3173F817] (AR v2)
Copy OK

Track 16

Filename E:\ssagwebster\Cal Tjader - Four Classic Albums (2CD, 2018)\CD1\16. Triplet Blues.wav

Pre-gap length 0:00:02.00

Peak level 99.8 %
Extraction speed 3.6 X
Track quality 100.0 %
Test CRC FCFE610B
Copy CRC FCFE610B
Accurately ripped (confidence 1) [55054E91] (AR v2)
Copy OK

Track 17

Filename E:\ssagwebster\Cal Tjader - Four Classic Albums (2CD, 2018)\CD1\17. Union Square.wav

Pre-gap length 0:00:02.00

Peak level 97.6 %
Extraction speed 3.6 X
Track quality 100.0 %
Test CRC 9B56784C
Copy CRC 9B56784C
Accurately ripped (confidence 1) [8871D6CD] (AR v2)
Copy OK

Track 18

Filename E:\ssagwebster\Cal Tjader - Four Classic Albums (2CD, 2018)\CD1\18. Skyline Waltz.wav

Pre-gap length 0:00:02.00

Peak level 89.2 %
Extraction speed 3.6 X
Track quality 100.0 %
Test CRC 3EB7D935
Copy CRC 3EB7D935
Accurately ripped (confidence 1) [9CE26271] (AR v2)
Copy OK

Track 19

Filename E:\ssagwebster\Cal Tjader - Four Classic Albums (2CD, 2018)\CD1\19. Viva Cepeda.wav

Pre-gap length 0:00:02.00

Peak level 88.8 %
Extraction speed 3.7 X
Track quality 100.0 %
Test CRC 5D5DA73E
Copy CRC 5D5DA73E
Accurately ripped (confidence 1) [9BE2BDC2] (AR v2)
Copy OK

Track 20

Filename E:\ssagwebster\Cal Tjader - Four Classic Albums (2CD, 2018)\CD1\20. Grant Avenue Suite.wav

Pre-gap length 0:00:02.00

Peak level 88.5 %
Extraction speed 4.1 X
Track quality 100.0 %
Test CRC D6F917C1
Copy CRC D6F917C1
Accurately ripped (confidence 1) [51B29135] (AR v2)
Copy OK


All tracks accurately ripped

No errors occurred

End of status report

–– CUETools DB Plugin V2.1.6

[CTDB TOCID: 6ap0FWtTK_9TI70cEL3z4Ko2XHA-] found
Submit result: 6ap0FWtTK_9TI70cEL3z4Ko2XHA- has been confirmed
Track | CTDB Status
1 | (2/2) Accurately ripped
2 | (2/2) Accurately ripped
3 | (2/2) Accurately ripped
4 | (2/2) Accurately ripped
5 | (2/2) Accurately ripped
6 | (2/2) Accurately ripped
7 | (2/2) Accurately ripped
8 | (2/2) Accurately ripped
9 | (2/2) Accurately ripped
10 | (2/2) Accurately ripped
11 | (2/2) Accurately ripped
12 | (2/2) Accurately ripped
13 | (2/2) Accurately ripped
14 | (2/2) Accurately ripped
15 | (2/2) Accurately ripped
16 | (2/2) Accurately ripped
17 | (2/2) Accurately ripped
18 | (2/2) Accurately ripped
19 | (2/2) Accurately ripped
20 | (2/2) Accurately ripped


==== Log checksum 249DD3228313C65A9C188900991496A2DB267E817DE1E71210803ECA3675C8DF ====

[CUETools log; Date: 25.07.2020 15:40:12; Version: 2.1.4]
[CTDB TOCID: 6ap0FWtTK_9TI70cEL3z4Ko2XHA-] found.
Track | CTDB Status
1 | (3/3) Accurately ripped
2 | (3/3) Accurately ripped
3 | (3/3) Accurately ripped
4 | (3/3) Accurately ripped
5 | (3/3) Accurately ripped
6 | (3/3) Accurately ripped
7 | (3/3) Accurately ripped
8 | (3/3) Accurately ripped
9 | (3/3) Accurately ripped
10 | (3/3) Accurately ripped
11 | (3/3) Accurately ripped
12 | (3/3) Accurately ripped
13 | (3/3) Accurately ripped
14 | (3/3) Accurately ripped
15 | (3/3) Accurately ripped
16 | (3/3) Accurately ripped
17 | (3/3) Accurately ripped
18 | (3/3) Accurately ripped
19 | (3/3) Accurately ripped
20 | (3/3) Accurately ripped
[AccurateRip ID: 003385bb-02f51452-2a11e214] found.
Track [ CRC | V2 ] Status
01 [27df7660|2cf8a862] (0+1/1) Accurately ripped
02 [2cc26514|e633dfad] (0+1/1) Accurately ripped
03 [7b0e726c|67a8e037] (0+1/1) Accurately ripped
04 [98b81b06|7d580dfe] (0+1/1) Accurately ripped
05 [2acedd18|daf2a466] (0+1/1) Accurately ripped
06 [69232647|ffa76cb2] (0+1/1) Accurately ripped
07 [6ac94779|9c68658d] (0+1/1) Accurately ripped
08 [abeb9190|c13f6929] (0+1/1) Accurately ripped
09 [da873f5d|f7828d09] (0+1/1) Accurately ripped
10 [ac669742|501f9674] (0+1/1) Accurately ripped
11 [56752606|0e289899] (0+1/1) Accurately ripped
12 [9a5bffba|ae154ce1] (0+1/1) Accurately ripped
13 [de2be0d7|37df0e78] (0+1/1) Accurately ripped
14 [551e71fd|be286f05] (0+1/1) Accurately ripped
15 [5f1dd852|3173f817] (0+1/1) Accurately ripped
16 [b289bd8c|55054e91] (0+1/1) Accurately ripped
17 [ab28cc57|8871d6cd] (0+1/1) Accurately ripped
18 [e2afd4b2|9ce26271] (0+1/1) Accurately ripped
19 [1b3ea57c|9be2bdc2] (0+1/1) Accurately ripped
20 [94e5b365|51b29135] (0+1/1) Accurately ripped

Track Peak [ CRC32 ] [W/O NULL] [ LOG ]
– 100,0 [09040BE9] [C3E73AF4]
01 100,0 [BDB623B2] [9FA2BB97] CRC32
02 53,9 [C1083CC5] [DCBD6DB1] CRC32
03 78,8 [A20BCECB] [319BC4FF] CRC32
04 94,5 [5B3D646F] [535BFB97] CRC32
05 82,4 [56E408B9] [AD9D80E7] CRC32
06 85,4 [102AED16] [65216BF9] CRC32
07 62,0 [67C08FBD] [75D95C26] CRC32
08 75,6 [C2A22C0B] [C0C1F8F3] CRC32
09 63,7 [813247BD] [79DAE8B6] CRC32
10 82,6 [9E443116] [6EDC8D2E] CRC32
11 88,7 [D0FD23ED] [FD33EBD7] CRC32
12 88,8 [25881299] [CAE66395] CRC32
13 88,7 [A445A26D] [A8B248D8] CRC32
14 84,0 [CD36FD83] [6373FA26] CRC32
15 88,7 [19C71F59] [78F68C74] CRC32
16 99,8 [FCFE610B] [ADEED8C6] CRC32
17 97,6 [9B56784C] [1BE5D3A6] CRC32
18 89,2 [3EB7D935] [645ADCB2] CRC32
19 88,8 [5D5DA73E] [29678037] CRC32
20 88,5 [D6F917C1] [D97FAB3C] CRC32

Exact Audio Copy V1.3 from 2. September 2016

EAC extraction logfile from 20. July 2020, 16:33

Cal Tjader / Four Classic Albums - CD2

Used drive : TSSTcorpCDDVDW SH-224FB Adapter: 1 ID: 0

Read mode : Secure
Utilize accurate stream : Yes
Defeat audio cache : Yes
Make use of C2 pointers : No

Read offset correction : 6
Overread into Lead-In and Lead-Out : No
Fill up missing offset samples with silence : Yes
Delete leading and trailing silent blocks : No
Null samples used in CRC calculations : Yes
Used interface : Native Win32 interface for Win NT & 2000
Gap handling : Appended to previous track

Used output format : User Defined Encoder
Selected bitrate : 128 kBit/s
Quality : High
Add ID3 tag : No
Command line compressor : C:\Program Files (x86)\Exact Audio Copy\Flac\flac.exe
Additional command line options : -V -8 -T "Genre=%genre%" -T "Artist=%artist%" -T "Title=%title%" -T "Album=%albumtitle%" -T "Date=%year%" -T "Tracknumber=%tracknr%" -T "Comment=%comment%" %source%


TOC of the extracted CD

Track | Start | Length | Start sector | End sector
––––––––––––––––––––––––––––-
1 | 0:00.00 | 8:50.10 | 0 | 39759
2 | 8:50.10 | 6:35.05 | 39760 | 69389
3 | 15:25.15 | 5:21.45 | 69390 | 93509
4 | 20:46.60 | 10:07.70 | 93510 | 139104
5 | 30:54.55 | 5:13.45 | 139105 | 162624
6 | 36:08.25 | 6:08.35 | 162625 | 190259
7 | 42:16.60 | 5:58.54 | 190260 | 217163
8 | 48:15.39 | 5:29.67 | 217164 | 241905
9 | 53:45.31 | 5:19.66 | 241906 | 265896
10 | 59:05.22 | 6:55.02 | 265897 | 297023
11 | 66:00.24 | 4:12.21 | 297024 | 315944
12 | 70:12.45 | 3:13.66 | 315945 | 330485
13 | 73:26.36 | 4:55.20 | 330486 | 352630


Track 1

Filename E:\ssagwebster\Cal Tjader - Four Classic Albums (2CD, 2018)\CD2\01. Doxy.wav

Pre-gap length 0:00:02.00

Peak level 80.6 %
Extraction speed 2.2 X
Track quality 100.0 %
Test CRC 0D3CD06C
Copy CRC 0D3CD06C
Accurately ripped (confidence 1) [8E290EC8] (AR v2)
Copy OK

Track 2

Filename E:\ssagwebster\Cal Tjader - Four Classic Albums (2CD, 2018)\CD2\02. Afro Blue.wav

Pre-gap length 0:00:02.00

Peak level 94.2 %
Extraction speed 2.2 X
Track quality 99.9 %
Test CRC 60A58599
Copy CRC 60A58599
Accurately ripped (confidence 1) [A18AE73B] (AR v2)
Copy OK

Track 3

Filename E:\ssagwebster\Cal Tjader - Four Classic Albums (2CD, 2018)\CD2\03. Laura.wav

Pre-gap length 0:00:02.00

Peak level 82.3 %
Extraction speed 2.6 X
Track quality 100.0 %
Test CRC F8BF7F0C
Copy CRC F8BF7F0C
Accurately ripped (confidence 1) [0A5E950C] (AR v2)
Copy OK

Track 4

Filename E:\ssagwebster\Cal Tjader - Four Classic Albums (2CD, 2018)\CD2\04. Walkin' With Wally.wav

Pre-gap length 0:00:02.00

Peak level 87.3 %
Extraction speed 3.1 X
Track quality 100.0 %
Test CRC DB2CD948
Copy CRC DB2CD948
Accurately ripped (confidence 1) [C05B5E00] (AR v2)
Copy OK

Track 5

Filename E:\ssagwebster\Cal Tjader - Four Classic Albums (2CD, 2018)\CD2\05. We'll Be Together Again.wav

Pre-gap length 0:00:02.00

Peak level 56.3 %
Extraction speed 3.1 X
Track quality 100.0 %
Test CRC B19E929C
Copy CRC B19E929C
Accurately ripped (confidence 1) [A05079E8] (AR v2)
Copy OK

Track 6

Filename E:\ssagwebster\Cal Tjader - Four Classic Albums (2CD, 2018)\CD2\06. 'Round Midnight.wav

Pre-gap length 0:00:02.00

Peak level 80.2 %
Extraction speed 3.3 X
Track quality 100.0 %
Test CRC 915B627B
Copy CRC 915B627B
Accurately ripped (confidence 1) [D6CFCD20] (AR v2)
Copy OK

Track 7

Filename E:\ssagwebster\Cal Tjader - Four Classic Albums (2CD, 2018)\CD2\07. Love Me Or Leave Me.wav

Pre-gap length 0:00:02.00

Peak level 84.8 %
Extraction speed 3.5 X
Track quality 100.0 %
Test CRC 8BEC47F2
Copy CRC 8BEC47F2
Accurately ripped (confidence 1) [B87DA1AF] (AR v2)
Copy OK

Track 8

Filename E:\ssagwebster\Cal Tjader - Four Classic Albums (2CD, 2018)\CD2\08. Tu Crees Que.wav

Pre-gap length 0:00:02.00

Peak level 98.6 %
Extraction speed 3.6 X
Track quality 100.0 %
Test CRC A35FE0A9
Copy CRC A35FE0A9
Accurately ripped (confidence 1) [5B9C1C3E] (AR v2)
Copy OK

Track 9

Filename E:\ssagwebster\Cal Tjader - Four Classic Albums (2CD, 2018)\CD2\09. SS Groove.wav

Pre-gap length 0:00:02.00

Peak level 96.5 %
Extraction speed 3.7 X
Track quality 100.0 %
Test CRC 7B87424A
Copy CRC 7B87424A
Accurately ripped (confidence 1) [8C3732BB] (AR v2)
Copy OK

Track 10

Filename E:\ssagwebster\Cal Tjader - Four Classic Albums (2CD, 2018)\CD2\10. A Night In Tunisia.wav

Pre-gap length 0:00:02.00

Peak level 93.3 %
Extraction speed 3.9 X
Track quality 100.0 %
Test CRC AADF97FE
Copy CRC AADF97FE
Accurately ripped (confidence 1) [25D6F0A3] (AR v2)
Copy OK

Track 11

Filename E:\ssagwebster\Cal Tjader - Four Classic Albums (2CD, 2018)\CD2\11. Bess, You Is My Woman.wav

Pre-gap length 0:00:02.00

Peak level 86.9 %
Extraction speed 3.9 X
Track quality 100.0 %
Test CRC 5FF688DF
Copy CRC 5FF688DF
Accurately ripped (confidence 1) [B49AEC49] (AR v2)
Copy OK

Track 12

Filename E:\ssagwebster\Cal Tjader - Four Classic Albums (2CD, 2018)\CD2\12. Lover Come Back To Me.wav

Pre-gap length 0:00:02.00

Peak level 73.1 %
Extraction speed 2.7 X
Track quality 99.9 %
Test CRC D1608D35
Copy CRC D1608D35
Accurately ripped (confidence 1) [8E168867] (AR v2)
Copy OK

Track 13

Filename E:\ssagwebster\Cal Tjader - Four Classic Albums (2CD, 2018)\CD2\13. Tumbao.wav

Pre-gap length 0:00:02.00

Peak level 93.5 %
Extraction speed 4.1 X
Track quality 100.0 %
Test CRC B0D032D8
Copy CRC B0D032D8
Accurately ripped (confidence 1) [5A27F3D0] (AR v2)
Copy OK


All tracks accurately ripped

No errors occurred

End of status report

–– CUETools DB Plugin V2.1.6

[CTDB TOCID: M4kAqgJ0Fe0.B.B0i3lnpNptfn4-] found
Submit result: M4kAqgJ0Fe0.B.B0i3lnpNptfn4- has been confirmed
Track | CTDB Status
1 | (2/2) Accurately ripped
2 | (2/2) Accurately ripped
3 | (2/2) Accurately ripped
4 | (2/2) Accurately ripped
5 | (2/2) Accurately ripped
6 | (2/2) Accurately ripped
7 | (2/2) Accurately ripped
8 | (2/2) Accurately ripped
9 | (2/2) Accurately ripped
10 | (2/2) Accurately ripped
11 | (2/2) Accurately ripped
12 | (2/2) Accurately ripped
13 | (2/2) Accurately ripped


==== Log checksum D3EA0BEBD2D4AA1228210CF59095C8A682C9C84DC65797314E6DD5B9E5F47FE9 ====

[CUETools log; Date: 25.07.2020 15:40:36; Version: 2.1.4]
[CTDB TOCID: M4kAqgJ0Fe0.B.B0i3lnpNptfn4-] found.
Track | CTDB Status
1 | (3/3) Accurately ripped
2 | (3/3) Accurately ripped
3 | (3/3) Accurately ripped
4 | (3/3) Accurately ripped
5 | (3/3) Accurately ripped
6 | (3/3) Accurately ripped
7 | (3/3) Accurately ripped
8 | (3/3) Accurately ripped
9 | (3/3) Accurately ripped
10 | (3/3) Accurately ripped
11 | (3/3) Accurately ripped
12 | (3/3) Accurately ripped
13 | (3/3) Accurately ripped
[AccurateRip ID: 00297037-0194d0e2-c7125d0d] found.
Track [ CRC | V2 ] Status
01 [e9244b7f|8e290ec8] (0+1/1) Accurately ripped
02 [2d47cc38|a18ae73b] (0+1/1) Accurately ripped
03 [be5b22b9|0a5e950c] (0+1/1) Accurately ripped
04 [e6468c3d|c05b5e00] (0+1/1) Accurately ripped
05 [5bbb449f|a05079e8] (0+1/1) Accurately ripped
06 [0792c607|d6cfcd20] (0+1/1) Accurately ripped
07 [df8b41b4|b87da1af] (0+1/1) Accurately ripped
08 [436500d2|5b9c1c3e] (0+1/1) Accurately ripped
09 [4b276d03|8c3732bb] (0+1/1) Accurately ripped
10 [97439c72|25d6f0a3] (0+1/1) Accurately ripped
11 [1976d16b|b49aec49] (0+1/1) Accurately ripped
12 [5ae1b92b|8e168867] (0+1/1) Accurately ripped
13 [7ceeebe6|5a27f3d0] (0+1/1) Accurately ripped

Track Peak [ CRC32 ] [W/O NULL] [ LOG ]
– 98,6 [9415AFDE] [11D83C1C]
01 80,6 [0D3CD06C] [5281C711] CRC32
02 94,2 [60A58599] [E6764B99] CRC32
03 82,3 [F8BF7F0C] [A970BD65] CRC32
04 87,3 [DB2CD948] [5467FC02] CRC32
05 56,3 [B19E929C] [D51A19BF] CRC32
06 80,2 [915B627B] [031D2B41] CRC32
07 84,8 [8BEC47F2] [8A0C162E] CRC32
08 98,6 [A35FE0A9] [58B8E218] CRC32
09 96,5 [7B87424A] [BD71C2BE] CRC32
10 93,3 [AADF97FE] [481B7F65] CRC32
11 86,9 [5FF688DF] [A54EC296] CRC32
12 73,1 [D1608D35] [C04F60CA] CRC32
13 93,5 [B0D032D8] [DC955733] CRC32

Thanks to ssagwebster

See also: