Tags
Language
Tags

Cal Tjader - Los Ritmos Calientes [Recorded 1954-1957] (1992)

Posted By: gribovar
Cal Tjader - Los Ritmos Calientes [Recorded 1954-1957] (1992)

Cal Tjader - Los Ritmos Calientes [Recorded 1954-1957] (1992)
EAC Rip | FLAC (image+.cue+log) - 389 MB | Covers (9 MB) included
Genre: Afro-Cuban Jazz, Latin Jazz | RAR 3% Rec. | Label: Fantasy (FCD-24712)

Vibraphonist Cal Tjader's 1950s recordings for Fantasy did a great deal to popularize Latin jazz and solidify its innovations. Los Ritmo Caliente features such fine sidemen as flutist Jerome Richardson, pianists Richard Wyands, Eddie Cano, Manuel Duran, and Vince Guaraldi, bassists Al McKibbon, Bobby Rodriguez, and Eugene Wright, and quite a few percussionists (most notably Armando Peraza and, on three songs, Mongo Santamaria and Willie Bobo). The fusion of bop and Latin music results in some exciting playing. In addition to group originals, tunes such as Ray Bryant's "Cubano Chant," "Mambo Inn," "Bernie's Tune," "Perdido," and even "Big Noise from Winnetka" receive lively treatment.
Tracklist:
01. Cubano Chant
02. Goza
03. Panchero Mambero
04. Alegres Timbales
05. Mambo Moderno
06. Afro Corolombo
07. Ritmo Caliente
08. Lamento De Hodi
09. Mambo Inn
10. Buhuto (Nanigo 6/8)
11. Alegres Congas
12. Mueve La Cintura
13. Bernie's Tune
14. Perdido
15. Armando's Hideaway
16. Cuco On Timbales
17. Tumbao
18. Ritmo Rumba
19. Big Noise from Winnetka
20. Poinciana Cha Cha
21. Mongorama
22. Ritmo Africano
23. Perfidia Cha Cha

Total time: 01:12:51

Exact Audio Copy V0.99 prebeta 4 from 23. January 2008

EAC extraction logfile from 8. October 2009, 12:05

Cal Tjader / Los Ritmos Calientes

Used drive : HL-DT-STDVD-RAM GH22NP20 Adapter: 1 ID: 1

Read mode : Secure
Utilize accurate stream : Yes
Defeat audio cache : Yes
Make use of C2 pointers : No

Read offset correction : 102
Overread into Lead-In and Lead-Out : No
Fill up missing offset samples with silence : Yes
Delete leading and trailing silent blocks : No
Null samples used in CRC calculations : Yes
Used interface : Installed external ASPI interface

Used output format : Internal WAV Routines
Sample format : 44.100 Hz; 16 Bit; Stereo
Use compression offset : 102


TOC of the extracted CD

Track | Start | Length | Start sector | End sector
––––––––––––––––––––––––––––-
1 | 0:00.00 | 6:21.25 | 0 | 28599
2 | 6:21.25 | 1:57.60 | 28600 | 37434
3 | 8:19.10 | 2:25.60 | 37435 | 48369
4 | 10:44.70 | 1:12.40 | 48370 | 53809
5 | 11:57.35 | 3:30.52 | 53810 | 69611
6 | 15:28.12 | 1:28.53 | 69612 | 76264
7 | 16:56.65 | 2:09.15 | 76265 | 85954
8 | 19:06.05 | 3:03.30 | 85955 | 99709
9 | 22:09.35 | 2:49.70 | 99710 | 112454
10 | 24:59.30 | 1:38.00 | 112455 | 119804
11 | 26:37.30 | 1:05.10 | 119805 | 124689
12 | 27:42.40 | 2:34.22 | 124690 | 136261
13 | 30:16.62 | 2:38.43 | 136262 | 148154
14 | 32:55.30 | 7:05.10 | 148155 | 180039
15 | 40:00.40 | 2:34.57 | 180040 | 191646
16 | 42:35.22 | 1:44.73 | 191647 | 199519
17 | 44:20.20 | 3:14.27 | 199520 | 214096
18 | 47:34.47 | 0:58.10 | 214097 | 218456
19 | 48:32.57 | 4:19.00 | 218457 | 237881
20 | 52:51.57 | 3:42.00 | 237882 | 254531
21 | 56:33.57 | 6:23.15 | 254532 | 283271
22 | 62:56.72 | 1:40.65 | 283272 | 290836
23 | 64:37.62 | 8:13.20 | 290837 | 327831


Range status and errors

Selected range

Filename C:\Documents and Settings\Proprietario.RT\Desktop\R\AAAA TO EAC\Cal Tjader - Los Ritmos Calientes\Cal Tjader - Los Ritmos Calientes.wav

Peak level 100.0 %
Range quality 100.0 %
Test CRC 8AB2B935
Copy CRC 8AB2B935
Copy OK

No errors occurred

End of status report

[CUETools log; Date: 21.08.2019 18:44:50; Version: 2.1.4]
[CTDB TOCID: WMQlfhuyGsbjtXycZep_diLJutU-] found.
Track | CTDB Status
1 | (16/16) Accurately ripped
2 | (16/16) Accurately ripped
3 | (16/16) Accurately ripped
4 | (15/16) Accurately ripped
5 | (16/16) Accurately ripped
6 | (16/16) Accurately ripped
7 | (16/16) Accurately ripped
8 | (16/16) Accurately ripped
9 | (16/16) Accurately ripped
10 | (16/16) Accurately ripped
11 | (16/16) Accurately ripped
12 | (16/16) Accurately ripped
13 | (16/16) Accurately ripped
14 | (16/16) Accurately ripped
15 | (16/16) Accurately ripped
16 | (16/16) Accurately ripped
17 | (16/16) Accurately ripped
18 | (16/16) Accurately ripped
19 | (16/16) Accurately ripped
20 | (16/16) Accurately ripped
21 | (16/16) Accurately ripped
22 | (16/16) Accurately ripped
23 | (16/16) Accurately ripped
[AccurateRip ID: 00360128-0384645a-64111317] found.
Track [ CRC | V2 ] Status
01 [f3891e2a|8a10e684] (03+08/13) Accurately ripped
02 [dbe7ab2a|84ce919b] (03+07/12) Accurately ripped
03 [981f1938|b31fc3d5] (03+08/13) Accurately ripped
04 [c298d522|6ee8e1fa] (03+07/12) Accurately ripped
05 [127e5670|cca0b522] (03+08/13) Accurately ripped
06 [548904ea|3d72a5ce] (03+07/12) Accurately ripped
07 [7f90631e|478ee9dd] (03+08/13) Accurately ripped
08 [cd3e0107|cf8bdde3] (03+07/12) Accurately ripped
09 [558b7906|8975aa9a] (03+07/12) Accurately ripped
10 [9dcae5c7|0ed41870] (03+07/12) Accurately ripped
11 [e232777f|7824adc3] (03+07/12) Accurately ripped
12 [29125711|463f867c] (03+07/12) Accurately ripped
13 [dff35684|e8830a85] (03+07/12) Accurately ripped
14 [d767c886|9ca13c2c] (03+08/11) Accurately ripped
15 [ed4e1e6a|bca42311] (03+08/11) Accurately ripped
16 [acbe664f|33f96035] (03+07/10) Accurately ripped
17 [8e4298cf|21e4b696] (03+07/10) Accurately ripped
18 [f580bb78|62c63377] (03+07/10) Accurately ripped
19 [c2b5fd46|d658c46f] (03+07/10) Accurately ripped
20 [a4c6c731|2f4676ce] (03+08/11) Accurately ripped
21 [4ae04e83|f237de99] (03+08/13) Accurately ripped
22 [cfe7a9b5|b8ebc95c] (03+08/13) Accurately ripped
23 [34c6dbef|4ff2fd54] (03+08/13) Accurately ripped
Offsetted by -664:
01 [c8564317] (00/13) No match (V2 was not tested)
02 [cd7304fd] (00/12) No match (V2 was not tested)
03 [37eb23ca] (00/13) No match (V2 was not tested)
04 [d9a78732] (00/12) No match (V2 was not tested)
05 [52a03ab9] (00/13) No match (V2 was not tested)
06 [5aa79647] (00/12) No match (V2 was not tested)
07 [7330a3aa] (00/13) No match (V2 was not tested)
08 [4dc485a8] (00/12) No match (V2 was not tested)
09 [427ca2b0] (00/12) No match (V2 was not tested)
10 [e2ee5d37] (00/12) No match (V2 was not tested)
11 [cc7375e5] (00/12) No match (V2 was not tested)
12 [b5321785] (00/12) No match (V2 was not tested)
13 [eb95770c] (00/12) No match (V2 was not tested)
14 [fb8e3e22] (00/11) No match (V2 was not tested)
15 [40949535] (00/11) No match (V2 was not tested)
16 [82a9aa0b] (00/10) No match (V2 was not tested)
17 [85c553a7] (00/10) No match (V2 was not tested)
18 [9dad7249] (00/10) No match (V2 was not tested)
19 [6bcabf36] (00/10) No match (V2 was not tested)
20 [ea21c473] (00/11) No match (V2 was not tested)
21 [af070c8a] (00/13) No match (V2 was not tested)
22 [3a679b32] (00/13) No match (V2 was not tested)
23 [711db622] (00/13) No match (V2 was not tested)
Offsetted by 74:
01 [bc1e906c] (00/13) No match (V2 was not tested)
02 [b0bc225a] (00/12) No match (V2 was not tested)
03 [e7c52853] (00/13) No match (V2 was not tested)
04 [48c8f273] (00/12) No match (V2 was not tested)
05 [98513d9d] (00/13) No match (V2 was not tested)
06 [c5c20905] (00/12) No match (V2 was not tested)
07 [6c76b966] (00/13) No match (V2 was not tested)
08 [c6bf2d28] (00/12) No match (V2 was not tested)
09 [3ed3309f] (00/12) No match (V2 was not tested)
10 [95a11fa5] (00/12) No match (V2 was not tested)
11 [f3eec191] (00/12) No match (V2 was not tested)
12 [0f5e1c1e] (00/12) No match (V2 was not tested)
13 [86015f6b] (00/12) No match (V2 was not tested)
14 [4f25a68d] (00/11) No match (V2 was not tested)
15 [e99fcee1] (00/11) No match (V2 was not tested)
16 [6987d39b] (00/10) No match (V2 was not tested)
17 [7ec7206f] (00/10) No match (V2 was not tested)
18 [222ed629] (00/10) No match (V2 was not tested)
19 [773d805a] (00/10) No match (V2 was not tested)
20 [9aa74d7d] (00/11) No match (V2 was not tested)
21 [a8a990c6] (00/13) No match (V2 was not tested)
22 [0ca6bd4b] (00/13) No match (V2 was not tested)
23 [77c651e5] (00/13) No match (V2 was not tested)

Track Peak [ CRC32 ] [W/O NULL] [ LOG ]
– 100,0 [8AB2B935] [C57442C4] CRC32
01 98,1 [C1E4F960] [3E58C09C]
02 100,0 [841C10E1] [E39E1BA1]
03 90,3 [F9B54D30] [6FE20386]
04 99,6 [BA3A9B5D] [4A3BB0F0]
05 78,1 [B5A13E83] [D61A3D7F]
06 85,4 [C21B573C] [4C0E9597]
07 100,0 [0203287D] [0B37B079]
08 87,6 [28083289] [B1F51003]
09 90,4 [D6305C8B] [F92D4AD5]
10 84,2 [7923353E] [0DB6B447]
11 64,8 [E0C975B6] [BCF8A506]
12 78,7 [10F727FB] [840341E1]
13 100,0 [2CF15FFE] [9E5E2E03]
14 99,9 [80288F2C] [70CB3906]
15 81,3 [6DCF3CE4] [27FDBAC6]
16 87,4 [673D2809] [7FAE0574]
17 93,6 [74C9A323] [2FEDA0F4]
18 61,2 [C8FE3677] [8D77F193]
19 93,6 [B53C5E62] [90E04BDD]
20 89,9 [163B569A] [7F0E3516]
21 100,0 [E2E2D6A4] [9662B6E3]
22 100,0 [5475986C] [FEB49990]
23 85,8 [3F9F3ADE] [D745E6B6]

Thanks to bINkI

See also: