Tags
Language
Tags

Cal Tjader - Solar Heat (1968) [Reissue 1994] (Repost)

Posted By: gribovar
Cal Tjader - Solar Heat (1968) [Reissue 1994] (Repost)

Cal Tjader - Solar Heat (1968) [Reissue 1994]
EAC Rip | WavPack (image+.cue+log) - 132 MB | MP3 CBR 320 kbps (LAME 3.93) - 67 MB | Covers - 19 MB
Genre: Jazz | RAR 3% Rec. | Label: DCC Jazz (DJZ-618)

"Solar Heat" featured the vibraphonist and bandleader in a stellar group with conguero Ray Barretto, João Donato on organ, Michael Abene on harpsichord and Fender Rhodes, both McFarland (who arranged this recording) and Tjader on vibes, percussionist Orestes Vilató, and bassists Bobby Rodriguez and Chuck Rainey. It's a killer program of pop tunes like "La Bamba," and "Never My Love," as well as killer McFarland originals such as "Fried Bananas." Track list notwithstanding, this is one of Tjader's finest moments on record. His soloing and melodic invention is delightfully showcased as the logical center between Donato's brilliant organ playing and the crystalline arrangements.
Tracklist:
01. Ode to Billy Joe
02. Never My Love
03. Felicidade
04. Mambo Sangria
05. Here
06. Fried Bananas
07. Amazon
08. La Bamba
09. Eye of the Devil
10. Solar Heat

Total time: 28:24

Exact Audio Copy V0.99 prebeta 4 from 23. January 2008

EAC extraction logfile from 10. February 2010, 14:18

Cal Tjader / Solar Heat

Used drive : HL-DT-STDVDRAM GH20NS10 Adapter: 2 ID: 1

Read mode : Secure
Utilize accurate stream : Yes
Defeat audio cache : Yes
Make use of C2 pointers : No

Read offset correction : 667
Overread into Lead-In and Lead-Out : No
Fill up missing offset samples with silence : Yes
Delete leading and trailing silent blocks : No
Null samples used in CRC calculations : Yes
Used interface : Installed external ASPI interface

Used output format : Internal WAV Routines
Sample format : 44.100 Hz; 16 Bit; Stereo


TOC of the extracted CD

Track | Start | Length | Start sector | End sector
––––––––––––––––––––––––––––-
1 | 0:00.00 | 3:09.70 | 0 | 14244
2 | 3:09.70 | 2:57.62 | 14245 | 27581
3 | 6:07.57 | 2:47.20 | 27582 | 40126
4 | 8:55.02 | 2:50.28 | 40127 | 52904
5 | 11:45.30 | 3:43.17 | 52905 | 69646
6 | 15:28.47 | 2:38.58 | 69647 | 81554
7 | 18:07.30 | 2:35.20 | 81555 | 93199
8 | 20:42.50 | 2:34.27 | 93200 | 104776
9 | 23:17.02 | 2:27.20 | 104777 | 115821
10 | 25:44.22 | 2:39.45 | 115822 | 127791


Range status and errors

Selected range

Filename Z:\NetLab\Cal Tjader - 1968 - Solar Heat {DCC Jazz DJZ-618}\Cal Tjader - Solar Heat.wav

Peak level 94.0 %
Range quality 100.0 %
Test CRC 8FA7F39A
Copy CRC 8FA7F39A
Copy OK

No errors occurred


AccurateRip summary

Track 1 not present in database
Track 2 not present in database
Track 3 not present in database
Track 4 not present in database
Track 5 not present in database
Track 6 not present in database
Track 7 not present in database
Track 8 not present in database
Track 9 not present in database
Track 10 not present in database

None of the tracks are present in the AccurateRip database

End of status report

[CUETools log; Date: 04.02.2018 12:27:40; Version: 2.1.4]
[CTDB TOCID: vrpMWafwyufPGdebJ3_VIt07Jfc-] found.
Track | CTDB Status
1 | (6/6) Accurately ripped
2 | (6/6) Accurately ripped
3 | (6/6) Accurately ripped
4 | (6/6) Accurately ripped
5 | (5/6) Accurately ripped
6 | (6/6) Accurately ripped
7 | (6/6) Accurately ripped
8 | (6/6) Accurately ripped
9 | (6/6) Accurately ripped
10 | (6/6) Accurately ripped
[AccurateRip ID: 000b1a64-0058289a-8b06a70a] found.
Track [ CRC | V2 ] Status
01 [526e5417|238a85c8] (2+4/9) Accurately ripped
02 [3e1f38d6|01a9e5f4] (2+4/9) Accurately ripped
03 [4b5b6ccd|79ddfb55] (2+4/9) Accurately ripped
04 [f03f0937|da98ac7b] (2+4/9) Accurately ripped
05 [6d73d850|8b8404ae] (2+4/9) Accurately ripped
06 [832801fa|18bee185] (2+4/9) Accurately ripped
07 [aa4f1648|e08d678f] (2+4/9) Accurately ripped
08 [c0af4236|7b81c402] (2+4/9) Accurately ripped
09 [accf962f|913925cb] (2+4/9) Accurately ripped
10 [1300f381|2489c9ba] (2+4/9) Accurately ripped
Offsetted by 1809:
01 [aedc9e3b] (3/9) Accurately ripped
02 [d5c27724] (3/9) Accurately ripped
03 [f457234f] (3/9) Accurately ripped
04 [c8d8493f] (3/9) Accurately ripped
05 [00af7816] (3/9) Accurately ripped
06 [c60f9b63] (3/9) Accurately ripped
07 [d82b4ff0] (3/9) Accurately ripped
08 [948821c3] (3/9) Accurately ripped
09 [a8a1cc9c] (3/9) Accurately ripped
10 [28978495] (3/9) Accurately ripped
Offsetted by -664:
01 [44751cb7] (0/9) No match (V2 was not tested)
02 [5e7c2386] (0/9) No match (V2 was not tested)
03 [6b703e9d] (0/9) No match (V2 was not tested)
04 [0482c077] (0/9) No match (V2 was not tested)
05 [d89867c0] (0/9) No match (V2 was not tested)
06 [46832f22] (0/9) No match (V2 was not tested)
07 [356cc688] (0/9) No match (V2 was not tested)
08 [bded97fe] (0/9) No match (V2 was not tested)
09 [88d7e6f7] (0/9) No match (V2 was not tested)
10 [88bea5a1] (0/9) No match (V2 was not tested)

Track Peak [ CRC32 ] [W/O NULL] [ LOG ]
– 94,0 [8FA7F39A] [835E7657] CRC32
01 94,0 [2983F455] [39C9AFC0]
02 94,0 [B53B4898] [08DC497C]
03 94,0 [8BE4BCDE] [CA0630E9]
04 94,0 [453B58BD] [5EBFAA31]
05 92,3 [C0F5C5A2] [CDF9ABA4]
06 94,0 [6C5498AE] [448554DB]
07 94,0 [DB6CE51F] [E2790C77]
08 94,0 [577D9C11] [3575B7C8]
09 94,0 [6AA1CA11] [31786D78]
10 94,0 [4A9CA7B9] [78D1C2B7]

Thanks to Pr3ss

See also:
Cal Tjader - Cal Tjader Plays ...d Brazil (1962) [Reissue 2008]