Tags
Language
Tags

Cal Tjader - Talkin' Verve - Roots Of Acid Jazz [Recorded 1961-1967] (1996)

Posted By: gribovar
Cal Tjader - Talkin' Verve - Roots Of Acid Jazz [Recorded 1961-1967] (1996)

Cal Tjader - Talkin' Verve - Roots Of Acid Jazz [Recorded 1961-1967] (1996)
EAC Rip | FLAC (image+.cue+log) - 425 MB | Covers - 26 MB
Genre: Afro-Cuban Jazz, Latin Jazz | RAR 3% Rec. | Label: Verve (314 531 562-2)

In apparent response to the sampling of old Latin jazz records by hip-hop artists, Verve raided its Cal Tjader archive to come up with this fiercely grooving collection drawn from nine of his Verve albums. For all of producer Creed Taylor's '60s penchant for fashioning two- to four-minute cuts aimed at airplay, he allowed Tjader's groups considerable room to stretch out on several of the tracks included here, particularly on the live "Los Bandidos" and the hypnotic collaboration with pianist Eddie Palmieri, "Picadillo." More importantly, Tjader's records with Taylor were more varied in texture than his earlier discs, venturing now and then from his solid Afro-Cuban base into Brazilian rhythms, soul, big-band backings, and '60s pop touches. Among the best cuts included here are "Sambo Do Suenho" - which has a killer bossa/Afro-Cuban rhythm stoked by Grady Tate, Armando Peraza and Ray Barretto working in terrific symmetry - Peraza's fast, hard-swinging "Maramoor Mambo," and Horace Silver's "Tokyo Blues," as spearheaded by Lalo Schifrin's driving big band.
Tracklist:
01. Los Jibaros
02. Manteca
03. Sambo Do Suenho
04. Mambo In Miami
05. Triste
06. Soul Burst
07. Los Bandidos
08. Soul Sauce (orig., "Guachi Guaro")
09. Picadillo
10. Maramoor Mambo
11. Insight
12. Tokyo Blues
13. Afro-Blue
14. Cuando, Cuando, Que Sera?
15. Cal's Bluedo
16. Fuji

Total time: 01:13:17

Exact Audio Copy V0.99 prebeta 5 from 4. May 2009

EAC extraction logfile from 24. February 2010, 17:01

Cal Tjader / Roots Of Acid Jazz

Used drive : HL-DT-STDVD-RAM GH22NP20 Adapter: 1 ID: 1

Read mode : Secure
Utilize accurate stream : Yes
Defeat audio cache : Yes
Make use of C2 pointers : No

Read offset correction : 102
Overread into Lead-In and Lead-Out : No
Fill up missing offset samples with silence : Yes
Delete leading and trailing silent blocks : No
Null samples used in CRC calculations : Yes
Used interface : Native Win32 interface for Win NT & 2000

Used output format : Internal WAV Routines
Sample format : 44.100 Hz; 16 Bit; Stereo


TOC of the extracted CD

Track | Start | Length | Start sector | End sector
––––––––––––––––––––––––––––-
1 | 0:00.00 | 2:45.67 | 0 | 12441
2 | 2:45.67 | 6:37.58 | 12442 | 42274
3 | 9:23.50 | 5:51.57 | 42275 | 68656
4 | 15:15.32 | 2:48.08 | 68657 | 81264
5 | 18:03.40 | 4:12.05 | 81265 | 100169
6 | 22:15.45 | 4:41.00 | 100170 | 121244
7 | 26:56.45 | 7:19.02 | 121245 | 154171
8 | 34:15.47 | 2:27.48 | 154172 | 165244
9 | 36:43.20 | 7:06.35 | 165245 | 197229
10 | 43:49.55 | 4:03.62 | 197230 | 215516
11 | 47:53.42 | 5:34.73 | 215517 | 240639
12 | 53:28.40 | 4:14.72 | 240640 | 259761
13 | 57:43.37 | 4:30.03 | 259762 | 280014
14 | 62:13.40 | 2:56.32 | 280015 | 293246
15 | 65:09.72 | 5:35.35 | 293247 | 318406
16 | 70:45.32 | 2:31.50 | 318407 | 329781


Range status and errors

Selected range

Filename C:\Documents and Settings\Riccardo\Desktop\R\AAAA TO EAC\Cal Tjader - Roots of Acid Jazz\Cal Tjader - Roots Of Acid Jazz.wav

Peak level 100.0 %
Range quality 100.0 %
Test CRC 1054EC2A
Copy CRC 1054EC2A
Copy OK

No errors occurred

End of status report

[CUETools log; Date: 16.08.2019 15:02:14; Version: 2.1.4]
[CTDB TOCID: 1G9zHilcTZnEHKrZzyZL2raIK6c-] found.
Track | CTDB Status
1 | (23/24) Accurately ripped
2 | (23/24) Accurately ripped
3 | (24/24) Accurately ripped
4 | (23/24) Accurately ripped
5 | (23/24) Accurately ripped
6 | (23/24) Accurately ripped
7 | (23/24) Accurately ripped
8 | (24/24) Accurately ripped
9 | (23/24) Accurately ripped
10 | (23/24) Accurately ripped
11 | (24/24) Accurately ripped
12 | (24/24) Accurately ripped
13 | (24/24) Accurately ripped
14 | (23/24) Accurately ripped
15 | (22/24) Accurately ripped
16 | (22/24) Accurately ripped
[AccurateRip ID: 002bf247-02106a81-df112d10] found.
Track [ CRC | V2 ] Status
01 [14545d45|bee17443] (05+09/36) Accurately ripped
02 [dcfb91fa|8ae2522d] (05+09/36) Accurately ripped
03 [9425a141|c1615d8d] (05+09/36) Accurately ripped
04 [85cd1424|06b600b3] (05+09/36) Accurately ripped
05 [a2ab70b9|92706f51] (05+09/36) Accurately ripped
06 [b2eec631|56b0eb4b] (05+09/36) Accurately ripped
07 [c7f713e9|ec0c3caa] (05+09/36) Accurately ripped
08 [6527c5a1|0e085e9f] (05+08/34) Accurately ripped
09 [3e3c3632|873f9131] (05+09/36) Accurately ripped
10 [f41dfd6e|c808388f] (05+08/35) Accurately ripped
11 [2b446c11|aa1ba7ef] (05+09/35) Accurately ripped
12 [2165ad6d|355e5d16] (05+08/34) Accurately ripped
13 [711227d3|33a45d68] (05+08/35) Accurately ripped
14 [6834b982|5db609cf] (04+09/35) Accurately ripped
15 [ab3a9cc7|de180cb8] (05+07/33) Accurately ripped
16 [0f4a2a70|e6128ca8] (05+09/35) Accurately ripped
Offsetted by -710:
01 [19b48995] (04/36) Accurately ripped
02 [86ba165c] (04/36) Accurately ripped
03 [012dcf21] (04/36) Accurately ripped
04 [df4ab2aa] (04/36) Accurately ripped
05 [89b4ef5d] (04/36) Accurately ripped
06 [0ee0e4c7] (04/36) Accurately ripped
07 [3fbde91d] (04/36) Accurately ripped
08 [3ae956b7] (04/34) Accurately ripped
09 [fb152360] (04/36) Accurately ripped
10 [c8df468a] (04/35) Accurately ripped
11 [059ebfdf] (04/35) Accurately ripped
12 [60c386b7] (04/34) Accurately ripped
13 [e5b64325] (04/35) Accurately ripped
14 [94c962ce] (04/35) Accurately ripped
15 [d6a0afc7] (04/33) Accurately ripped
16 [3ef54aec] (04/35) Accurately ripped
Offsetted by -94:
01 [3cb406d5] (04/36) Accurately ripped
02 [6f7d5b64] (04/36) Accurately ripped
03 [1f564ea1] (04/36) Accurately ripped
04 [cd80af42] (04/36) Accurately ripped
05 [cc1318ed] (04/36) Accurately ripped
06 [ff493d9f] (04/36) Accurately ripped
07 [244328ed] (04/36) Accurately ripped
08 [1f61d98f] (03/34) Accurately ripped
09 [69fca098] (04/36) Accurately ripped
10 [19a8cbfa] (04/35) Accurately ripped
11 [0b99ef97] (03/35) Accurately ripped
12 [f46c555f] (03/34) Accurately ripped
13 [dfb3c7ed] (04/35) Accurately ripped
14 [d3c97cfe] (04/35) Accurately ripped
15 [87263bc7] (03/33) Accurately ripped
16 [f2fc95dc] (03/35) Accurately ripped
Offsetted by 1087:
01 [28f1ccfd] (03/36) Accurately ripped
02 [efd27b95] (03/36) Accurately ripped
03 [68888591] (03/36) Accurately ripped
04 [9a5bb885] (03/36) Accurately ripped
05 [a5e9b43f] (03/36) Accurately ripped
06 [9f5076ea] (03/36) Accurately ripped
07 [37e3df87] (03/36) Accurately ripped
08 [2cae4c1a] (03/34) Accurately ripped
09 [d4a3a92f] (03/36) Accurately ripped
10 [ca27d488] (03/35) Accurately ripped
11 [dacf0b7e] (03/35) Accurately ripped
12 [2c313804] (03/34) Accurately ripped
13 [1d52c396] (03/35) Accurately ripped
14 [8c2805a4] (03/35) Accurately ripped
15 [9e264547] (03/33) Accurately ripped
16 [e9a52a1a] (03/35) Accurately ripped

Track Peak [ CRC32 ] [W/O NULL] [ LOG ]
– 99,9 [1054EC2A] [B93E5AFA] CRC32
01 99,9 [A75D3F56] [DE8E0B59]
02 99,9 [5D8EF747] [5040FAAD]
03 85,3 [CA3E7216] [D036B962]
04 94,6 [876C57A1] [9E816568]
05 76,7 [5931480C] [3626CEFE]
06 79,4 [14655CD2] [93C2510F]
07 79,4 [EF339EF1] [8BD9AE36]
08 85,3 [FB21453E] [B3A569D6]
09 74,3 [4D81085E] [B7729EA3]
10 72,8 [5015D9AF] [86BFBB9E]
11 82,2 [510EBDCE] [75556EDD]
12 79,4 [39048CF6] [94ECFFB9]
13 69,5 [1638603C] [A638F0A1]
14 89,1 [24B8298A] [BEC4C632]
15 72,4 [9F7015FD] [697B4395]
16 79,4 [A57BDEDD] [1F04C786]

Thanks to bINkI

See also:
Stan Getz - Stan Getz With Cal Tjader (1958) [XRCD, Reissue 1998]
Cal Tjader - Cal Tjader Plays ...d Brazil (1962) [Reissue 2008]
Cal Tjader - Soul Bird: Whiffenpoof (1965) [Reissue 2002]
Cal Tjader - Soul Sauce (1965) [Reissue 1994]
Cal Tjader - Solar Heat (1968) [Reissue 1994]