Subcategories

Maria Callas: The Complete Studio Recordings (1949-1969) - CD 22 of 70

Posted By: dakszhund
Maria Callas: The Complete Studio Recordings (1949-1969) - CD 22 of 70

Maria Callas: The Complete Studio Recordings (1949-1969) - CD 22 of 70
Classical, Opera | CD21 | FLAC LOG CUE CRC | 187 MB | RS |
EMI Classics (3959182) | Release Date: Sep 25, 2007

Il Turci in Italia ACT II.(Teatro alla Scala, Milano; Gianandra Gavazzeni)


Exact Audio Copy V0.99 prebeta 5 from 4. May 2009

EAC extraction logfile from 12. July 2009, 16:04

Gioachino Rossini / Il Turco in Italia (Maria Callas, Teatro alla Scala, Milano; Gianandra Gavazzeni]_2

Used drive : Optiarc DVD+-RW AD-7640A Adapter: 0 ID: 0

Read mode : Secure
Utilize accurate stream : Yes
Defeat audio cache : No
Make use of C2 pointers : No

Read offset correction : 6
Overread into Lead-In and Lead-Out : No
Fill up missing offset samples with silence : Yes
Delete leading and trailing silent blocks : No
Null samples used in CRC calculations : No
Used interface : Native Win32 interface for Win NT & 2000

Used output format : User Defined Encoder
Selected bitrate : 768 kBit/s
Quality : High
Add ID3 tag : No
Command line compressor : C:\Program Files\Exact Audio Copy\FLAC\FLAC.EXE
Additional command line options : -6 -V -T "ARTIST=%a" -T "TITLE=%t" -T "ALBUM=%g" -T "DATE=%y" -T "TRACKNUMBER=%n" -T "GENRE=%m" -T "COMMENT=%e" %s -o %d


TOC of the extracted CD

Track | Start | Length | Start sector | End sector
––––––––––––––––––––––––––––-
1 | 0:00.32 | 1:15.05 | 32 | 5661
2 | 1:15.37 | 3:16.00 | 5662 | 20361
3 | 4:31.37 | 3:23.48 | 20362 | 35634
4 | 7:55.10 | 2:16.55 | 35635 | 45889
5 | 10:11.65 | 2:28.02 | 45890 | 56991
6 | 12:39.67 | 1:51.58 | 56992 | 65374
7 | 14:31.50 | 3:14.42 | 65375 | 79966
8 | 17:46.17 | 1:26.30 | 79967 | 86446
9 | 19:12.47 | 2:13.25 | 86447 | 96446
10 | 21:25.72 | 3:19.60 | 96447 | 111431
11 | 24:45.57 | 1:23.38 | 111432 | 117694
12 | 26:09.20 | 2:45.60 | 117695 | 130129
13 | 28:55.05 | 1:17.62 | 130130 | 135966
14 | 30:12.67 | 2:25.38 | 135967 | 146879
15 | 32:38.30 | 2:10.22 | 146880 | 156651
16 | 34:48.52 | 0:52.63 | 156652 | 160614


Range status and errors

Selected range

Filename E:\Callas CDs\cd 22\Gioachino Rossini - Il Turco in Italia.wav

Peak level 72.4 %
Range quality 99.9 %
Copy CRC 3809CCEB
Copy OK

No errors occurred


AccurateRip summary

Track 1 accurately ripped (confidence 9) [98071C9A]
Track 2 accurately ripped (confidence 9) [F962E378]
Track 3 accurately ripped (confidence 9) [11D2FA24]
Track 4 accurately ripped (confidence 9) [6F9D5616]
Track 5 accurately ripped (confidence 9) [C5CEE363]
Track 6 accurately ripped (confidence 9) [28B46D71]
Track 7 accurately ripped (confidence 9) [AF9792D5]
Track 8 accurately ripped (confidence 9) [C492A1D7]
Track 9 accurately ripped (confidence 9) [28B30A14]
Track 10 accurately ripped (confidence 9) [F3893FCA]
Track 11 accurately ripped (confidence 9) [1102B04F]
Track 12 accurately ripped (confidence 9) [78D95961]
Track 13 accurately ripped (confidence 9) [276FD90E]
Track 14 accurately ripped (confidence 9) [39E3BFE2]
Track 15 accurately ripped (confidence 9) [A3F9F580]
Track 16 accurately ripped (confidence 9) [419213A3]

All tracks accurately ripped

End of status report


NO MIRRORS!!!