Subcategories
Tags
Language
Tags

Calvin Jackson & Mississippi Bound - Goin' Down South (1999)

Posted By: gribovar
Calvin Jackson & Mississippi Bound - Goin' Down South (1999)

Calvin Jackson & Mississippi Bound - Goin' Down South (1999)
EAC Rip | WavPack (image+.cue+log) - 369 MB | MP3 CBR 320 kbps (LAME 3.93) - 144 MB | Covers - 19 MB
Genre: Country Blues, Delta Blues | RAR 3% Rec. | Label: Me & My Blues Records (MMBCD6)

Calvin Jackson (1961-2015) was an American drummer from north Mississippi. He is considered an innovator in the Hill country blues style of drumming, having incorporated elements of the regional Fife and drum bands style in the blues band setting.
In 1999 he released the only album under his own name, Calvin Jackson & Mississippi Bound's Goin' Down South. For this effort Jackson covered songs by such obvious influences as Mississippi Fred McDowell plus added his original complaints to this whining, fussing genre such as "Hard to Get Along" and "It's Gonna Rain". The album was nominated for a Blues Music Award in the category of "Best New Artist Debut".
Tracklist:
01. Hard to Get Along
02. Meet Me in the Bottom
03. Goin' Down South
04. It's Gonna Rain
05. Thin Ice
06. All Nite Boogie
07. Bright Lights Big City
08. When My First Wife Left Me
09. Put It All in There
10. Kokomo
11. Leaving Train Blues
12. Grinnin'

Total time: 01:01:08

Exact Audio Copy V0.99 prebeta 3 from 28. July 2007

EAC extraction logfile from 11. October 2007, 0:32

Calvin Jackson and Mississippi Bound / Goin' Down South

Used drive : PLEXTOR CD-R PREMIUM Adapter: 5 ID: 0

Read mode : Secure
Utilize accurate stream : Yes
Defeat audio cache : Yes
Make use of C2 pointers : No

Read offset correction : 30
Overread into Lead-In and Lead-Out : Yes
Fill up missing offset samples with silence : Yes
Delete leading and trailing silent blocks : No
Null samples used in CRC calculations : Yes
Used interface : Installed external ASPI interface

Used output format : Internal WAV Routines
Sample format : 44.100 Hz; 16 Bit; Stereo


TOC of the extracted CD

Track | Start | Length | Start sector | End sector
––––––––––––––––––––––––––––-
1 | 0:00.00 | 5:05.57 | 0 | 22931
2 | 5:05.57 | 4:48.40 | 22932 | 44571
3 | 9:54.22 | 6:24.38 | 44572 | 73409
4 | 16:18.60 | 3:57.17 | 73410 | 91201
5 | 20:16.02 | 4:41.63 | 91202 | 112339
6 | 24:57.65 | 5:09.17 | 112340 | 135531
7 | 30:07.07 | 4:30.55 | 135532 | 155836
8 | 34:37.62 | 5:07.45 | 155837 | 178906
9 | 39:45.32 | 4:55.58 | 178907 | 201089
10 | 44:41.15 | 4:23.70 | 201090 | 220884
11 | 49:05.10 | 5:28.67 | 220885 | 245551
12 | 54:34.02 | 6:33.50 | 245552 | 275076


Range status and errors

Selected range

Filename D:\Release\Calvin.Jackson.and.Mississippi.Bound - Goin_Down_South\Calvin Jackson and Mississippi Bound - Goin' Down South.wav

Peak level 99.9 %
Range quality 100.0 %
Copy CRC B204EE21
Copy OK

No errors occurred


AccurateRip summary

Track 1 not present in database
Track 2 not present in database
Track 3 not present in database
Track 4 not present in database
Track 5 not present in database
Track 6 not present in database
Track 7 not present in database
Track 8 not present in database
Track 9 not present in database
Track 10 not present in database
Track 11 not present in database
Track 12 not present in database

None of the tracks are present in the AccurateRip database

End of status report

[CUETools log; Date: 11.04.2021 13:56:00; Version: 2.1.4]
[CTDB TOCID: C4Oi6JRExkQfFT2zqwF_a7nfT0M-] found.
Track | CTDB Status
1 | (6/6) Accurately ripped
2 | (6/6) Accurately ripped
3 | (6/6) Accurately ripped
4 | (6/6) Accurately ripped
5 | (6/6) Accurately ripped
6 | (6/6) Accurately ripped
7 | (6/6) Accurately ripped
8 | (6/6) Accurately ripped
9 | (6/6) Accurately ripped
10 | (6/6) Accurately ripped
11 | (6/6) Accurately ripped
12 | (6/6) Accurately ripped
[AccurateRip ID: 001ad098-00f9d192-c70e530c] found.
Track [ CRC | V2 ] Status
01 [7732968b|c86d61df] (2+2/6) Accurately ripped
02 [6085bda0|f66d0077] (2+2/6) Accurately ripped
03 [81a7cd17|c3cce1e9] (2+2/6) Accurately ripped
04 [95633408|8f27a9f6] (2+2/6) Accurately ripped
05 [dc8b2c43|b3a5c3e2] (2+2/6) Accurately ripped
06 [3dd5a72a|addb5070] (2+2/6) Accurately ripped
07 [30502ea7|8e4fded5] (2+2/6) Accurately ripped
08 [df091164|69e02e48] (2+2/6) Accurately ripped
09 [e27c1301|2949dccf] (2+2/6) Accurately ripped
10 [0aca0005|2863deaf] (2+2/6) Accurately ripped
11 [5c1e3c71|da3326ee] (2+2/6) Accurately ripped
12 [e9864f55|5772304d] (2+3/7) Accurately ripped
Offsetted by -2403:
01 [d2bfd0f3] (0/6) No match (V2 was not tested)
02 [e9dd5874] (0/6) No match (V2 was not tested)
03 [243cd558] (0/6) No match (V2 was not tested)
04 [76884cb8] (0/6) No match (V2 was not tested)
05 [b3c87c6f] (0/6) No match (V2 was not tested)
06 [b981d22e] (0/6) No match (V2 was not tested)
07 [8fb1d2be] (0/6) No match (V2 was not tested)
08 [4872fefb] (0/6) No match (V2 was not tested)
09 [2f24e962] (0/6) No match (V2 was not tested)
10 [41a4bbc7] (0/6) No match (V2 was not tested)
11 [8363d272] (0/6) No match (V2 was not tested)
12 [7cd08c30] (0/7) No match (V2 was not tested)

Track Peak [ CRC32 ] [W/O NULL] [ LOG ]
– 99,9 [B204EE21] [7E981879] CRC32
01 99,9 [279CF195] [BABC77CD]
02 99,9 [26BB3000] [0CA39247]
03 99,9 [F5D73597] [562AC88B]
04 99,9 [3C7C9F54] [DB499127]
05 99,9 [817B2B5C] [CD2E83BF]
06 99,9 [E8845863] [FC9542D4]
07 99,9 [38470183] [1B4FEA1E]
08 99,9 [5670DD62] [DF14562E]
09 99,9 [47B07DC6] [9C4073D5]
10 99,9 [6677FFD9] [6FF863FC]
11 99,9 [0AA388D6] [A8E62B9B]
12 99,9 [92DC8D71] [F060332D]

Thanks to Гордый