Tags
Language
Tags

Camel - Breathless (1978) {1991, Japanese Reissue}

Posted By: popsakov
Camel - Breathless (1978) {1991, Japanese Reissue}

Camel - Breathless (1978) {1991, Japanese Reissue}
EAC Rip | WavPack (Img) + Cue + Log ~ 270 Mb | MP3 CBR320 ~ 112 Mb
Covers Included | 00:44:48 | RAR 5% Recovery
Art Rock, Progressive Rock | Deram / Polydor K.K. #POCD-1827

With Rain Dances, Camel began exploring shorter, more concise songs, but it wasn't until its follow-up, Breathless, that they truly made a stab at writing pop songs. Although they didn't completely abandon improvisational prog rock – there are several fine, jazzy interludes – most of the record is comprised of shorter songs designed for radio play. While the group didn't quite achieve that goal, Breathless is nevertheless a more accessible record than Camel's other albums, which tend to focus on instrumentals. Here, they try to be a straightforward prog rock band, and while the results are occasionally a little muddled, it is on the whole surprisingly successful.

~ Daevid Jehnzen, All Music

***************

Camel - Breathless (1978) {1991, Japanese Reissue}

Camel - Breathless (1978) {1991, Japanese Reissue}

Track List:

01. Breathless [4:21]
02. Echoes [7:22]
03. Wing and a Prayer [4:45]
04. Down on the Farm [4:23]
05. Starlight Ride [3:23]
06. Summer Lightning [6:07]
07. You Make Me Smile [4:18]
08. The Sleeper [7:07]
09. Rainbow's End [3:01]

Personnel:
Andrew Latimer – guitar, Yamaha CS-50 & CS-80 synthesizers; vocals on «Echoes», «Starlight Ride», «You Make Me Smile» and «Rainbow’s End»
Peter Bardens – keyboards, organ; vocals on «Wing and a Prayer»
Mel Collins – flute, oboe, saxophones
Richard Sinclair – bass; vocals on «Breathless», «Down on the Farm» and «Summer Lightning»
Andy Ward – drums, percussion

Additional personnel:
Dave Sinclair – synthesizer on «You Make Me Smile», piano on «Rainbow’s End»

Exact Audio Copy V1.2 from 12. August 2016

EAC extraction logfile from 12. April 2017, 16:22

Camel / Breathless [POCD-1827]

Used drive : HL-DT-STBD-RE BH10LS38 Adapter: 1 ID: 1

Read mode : Secure
Utilize accurate stream : Yes
Defeat audio cache : Yes
Make use of C2 pointers : No

Read offset correction : 667
Overread into Lead-In and Lead-Out : No
Fill up missing offset samples with silence : Yes
Delete leading and trailing silent blocks : No
Null samples used in CRC calculations : Yes
Used interface : Installed external ASPI interface

Used output format : User Defined Encoder
Selected bitrate : 128 kBit/s
Quality : High
Add ID3 tag : No
Command line compressor : C:\Program Files (x86)\Exact Audio Copy\wavpack-4.60.1\wavpack.exe
Additional command line options : -hm -w "Year=%year%" -w "Genre=%genre%" %source% %dest%


TOC of the extracted CD

Track | Start | Length | Start sector | End sector
––––––––––––––––––––––––––––-
1 | 0:00.00 | 4:21.25 | 0 | 19599
2 | 4:21.25 | 7:22.25 | 19600 | 52774
3 | 11:43.50 | 4:45.00 | 52775 | 74149
4 | 16:28.50 | 4:23.37 | 74150 | 93911
5 | 20:52.12 | 3:23.25 | 93912 | 109161
6 | 24:15.37 | 6:06.38 | 109162 | 136649
7 | 30:22.00 | 4:18.37 | 136650 | 156036
8 | 34:40.37 | 7:06.38 | 156037 | 188024
9 | 41:47.00 | 3:00.70 | 188025 | 201594


Range status and errors

Selected range

Filename G:\Rips by Alder\Camel - Breathless [POCD-1827].wav

Peak level 95.1 %
Extraction speed 7.2 X
Range quality 100.0 %
Test CRC 1379AAB0
Copy CRC 1379AAB0
Copy OK

No errors occurred


AccurateRip summary

Track 1 accurately ripped (confidence 1) [C59EDEA1] (AR v2)
Track 2 accurately ripped (confidence 1) [BB2EC86F] (AR v2)
Track 3 accurately ripped (confidence 1) [ECFBA1AD] (AR v2)
Track 4 accurately ripped (confidence 1) [98C3D123] (AR v2)
Track 5 accurately ripped (confidence 1) [712C8DD0] (AR v2)
Track 6 accurately ripped (confidence 1) [B097E507] (AR v2)
Track 7 accurately ripped (confidence 1) [16B794AC] (AR v2)
Track 8 accurately ripped (confidence 1) [864B2A22] (AR v2)
Track 9 accurately ripped (confidence 1) [5D54300C] (AR v2)

All tracks accurately ripped

End of status report

–– CUETools DB Plugin V2.1.6

[CTDB TOCID: A8ZBVdA_TAAyzcv2p9t.RToyo9I-] found
Submit result: A8ZBVdA_TAAyzcv2p9t.RToyo9I- has been confirmed
Track | CTDB Status
1 | (3/3) Accurately ripped
2 | (3/3) Accurately ripped
3 | (3/3) Accurately ripped
4 | (3/3) Accurately ripped
5 | (2/3) Accurately ripped, or (1/3) differs in 19 samples @00:08:29-00:08:30
6 | (3/3) Accurately ripped
7 | (3/3) Accurately ripped
8 | (3/3) Accurately ripped
9 | (3/3) Accurately ripped


==== Log checksum 5A56A18A3CF3329AB34A99D74FAFF83C76DF5038EB49F820AFE14B57FBD24067 ====

[CUETools log; Date: 15.04.2017 13:25:13; Version: 2.1.5]
[CTDB TOCID: A8ZBVdA_TAAyzcv2p9t.RToyo9I-] found.
Track | CTDB Status
1 | (4/4) Accurately ripped
2 | (4/4) Accurately ripped
3 | (4/4) Accurately ripped
4 | (4/4) Accurately ripped
5 | (3/4) Accurately ripped, or (1/4) differs in 19 samples @00:08:29-00:08:30
6 | (4/4) Accurately ripped
7 | (4/4) Accurately ripped
8 | (4/4) Accurately ripped
9 | (4/4) Accurately ripped
[AccurateRip ID: 000fbee2-0072ec9f-730a7f09] found.
Track [ CRC | V2 ] Status
01 [a8db8ffc|c59edea1] (0+1/1) Accurately ripped
02 [dc6f44c7|bb2ec86f] (0+1/1) Accurately ripped
03 [fbdc1049|ecfba1ad] (0+1/1) Accurately ripped
04 [1ab87354|98c3d123] (0+1/1) Accurately ripped
05 [3ff87237|712c8dd0] (0+1/1) Accurately ripped
06 [69875ca2|b097e507] (0+1/1) Accurately ripped
07 [42009d2f|16b794ac] (0+1/1) Accurately ripped
08 [e4abe318|864b2a22] (0+1/1) Accurately ripped
09 [8901ba16|5d54300c] (0+1/1) Accurately ripped

Track Peak [ CRC32 ] [W/O NULL] [ LOG ]
– 95,1 [1379AAB0] [26A26DAD] CRC32
01 83,1 [15303743] [9C77ED60]
02 73,3 [679A0B5A] [7B0B9D1D]
03 83,9 [52916BE4] [6A8F3772]
04 84,1 [8B8F4B7E] [9B16266C]
05 51,0 [24ECCC40] [269F13A5]
06 95,1 [EA951E13] [58A9D680]
07 78,1 [DECB697E] [6B474330]
08 72,1 [2F8A4237] [9CDE9383]
09 51,4 [8036B867] [DB94BF2C]

Camel - Breathless (1978) {1991, Japanese Reissue}


All thanks go to Alder

>>> Camel in my Blog <<<

DOWNLOAD: