Tags
Language
Tags

Camel - Coming Of Age (1998) {Japan 1st Press}

Posted By: popsakov
Camel - Coming Of Age (1998) {Japan 1st Press}

Camel - Coming Of Age (1998) {Japan 1st Press}
2CD | EAC Rip | WavPack (Img) + Cue + Log ~ 717 Mb | MP3 CBR320 ~ 311 Mb
Covers Included | 01:01:24 + 01:03:10 | RAR 5% Recovery
Progressive Rock | Pony Canyon #PCCY-01232

Coming of Age is a live album by progressive rock band Camel released 1998. Two hours of live recordings at Billboard Live in Hollywoodduring their 1997 West Coast tour. 28 tracks total, including 'Lunar Sea', 'Sasquatch', 'Milk 'N Honey' and 'TheHour Candle'.

***************

Camel - Coming Of Age (1998) {Japan 1st Press}

Camel - Coming Of Age (1998) {Japan 1st Press}

Track List CD1:

01. Lunar Sea [8:56]
02. Hymn to Her [6:34]
03. Rhayadar [2:54]
04. Rhayadar Goes to Town [5:04]
05. Preparation [3:19]
06. Dunkirk [5:06]
07. Drafted [4:28]
08. Docks [3:54]
09. Beached [4:01]
10. Spirit of the Water [3:09]
11. Ice [9:41]
12. Sasquatch [4:18]

Exact Audio Copy V1.2 from 12. August 2016

EAC extraction logfile from 23. March 2017, 14:28

Camel / Coming of Age (CD1)[PCCY-01232-1]

Used drive : HL-DT-STBD-RE BH10LS38 Adapter: 1 ID: 1

Read mode : Secure
Utilize accurate stream : Yes
Defeat audio cache : Yes
Make use of C2 pointers : No

Read offset correction : 667
Overread into Lead-In and Lead-Out : No
Fill up missing offset samples with silence : Yes
Delete leading and trailing silent blocks : No
Null samples used in CRC calculations : Yes
Used interface : Installed external ASPI interface

Used output format : User Defined Encoder
Selected bitrate : 128 kBit/s
Quality : High
Add ID3 tag : No
Command line compressor : C:\Program Files (x86)\Exact Audio Copy\wavpack-4.60.1\wavpack.exe
Additional command line options : -hm -w "Year=%year%" -w "Genre=%genre%" %source% %dest%


TOC of the extracted CD

Track | Start | Length | Start sector | End sector
––––––––––––––––––––––––––––-
1 | 0:00.00 | 8:55.60 | 0 | 40184
2 | 8:55.60 | 6:34.02 | 40185 | 69736
3 | 15:29.62 | 2:53.58 | 69737 | 82769
4 | 18:23.45 | 5:03.60 | 82770 | 105554
5 | 23:27.30 | 3:19.35 | 105555 | 120514
6 | 26:46.65 | 5:05.57 | 120515 | 143446
7 | 31:52.47 | 4:28.15 | 143447 | 163561
8 | 36:20.62 | 3:54.33 | 163562 | 181144
9 | 40:15.20 | 4:00.50 | 181145 | 199194
10 | 44:15.70 | 3:09.30 | 199195 | 213399
11 | 47:25.25 | 9:40.60 | 213400 | 256959
12 | 57:06.10 | 4:17.67 | 256960 | 276301


Range status and errors

Selected range

Filename G:\Rips by Alder\Camel - Coming of Age (CD1)[PCCY-01232-1].wav

Peak level 100.0 %
Extraction speed 7.6 X
Range quality 100.0 %
Test CRC 51B4BC15
Copy CRC 51B4BC15
Copy OK

No errors occurred


AccurateRip summary

Track 1 accurately ripped (confidence 2) [5E73F163] (AR v2)
Track 2 accurately ripped (confidence 2) [A1A254A6] (AR v2)
Track 3 accurately ripped (confidence 2) [C15E0272] (AR v2)
Track 4 accurately ripped (confidence 2) [8880C6DA] (AR v2)
Track 5 accurately ripped (confidence 2) [F4AAEA21] (AR v2)
Track 6 accurately ripped (confidence 2) [5C7B6845] (AR v2)
Track 7 accurately ripped (confidence 2) [DC38A8E5] (AR v2)
Track 8 accurately ripped (confidence 2) [679A0C99] (AR v2)
Track 9 accurately ripped (confidence 2) [09092731] (AR v2)
Track 10 accurately ripped (confidence 2) [B3242BC2] (AR v2)
Track 11 accurately ripped (confidence 2) [56129DA9] (AR v2)
Track 12 accurately ripped (confidence 2) [A9600028] (AR v2)

All tracks accurately ripped

End of status report

–– CUETools DB Plugin V2.1.6

[CTDB TOCID: ZsyHCB9RWYQw_PIGBRIHueMmttE-] found
Submit result: ZsyHCB9RWYQw_PIGBRIHueMmttE- has been confirmed
Track | CTDB Status
1 | (7/9) Accurately ripped
2 | (7/9) Accurately ripped
3 | (7/9) Accurately ripped
4 | (7/9) Accurately ripped
5 | (7/9) Accurately ripped
6 | (7/9) Accurately ripped
7 | (7/9) Accurately ripped
8 | (7/9) Accurately ripped
9 | (7/9) Accurately ripped
10 | (7/9) Accurately ripped
11 | (7/9) Accurately ripped
12 | (7/9) Accurately ripped


==== Log checksum 056AC03DF5C6085168C76599888AA6CB0FA3E3035532D14FAA92BAE1FE43FE29 ====

foobar2000 1.2.6 / Dynamic Range Meter 1.1.1
log date: 2017-03-25 14:13:43

––––––––––––––––––––––––––––––––––––––––
Analyzed: Camel / Coming of Age (CD1)[PCCY-01232-1]
––––––––––––––––––––––––––––––––––––––––

DR Peak RMS Duration Track
––––––––––––––––––––––––––––––––––––––––
DR13 -0.71 dB -16.19 dB 8:56 01-Lunar Sea
DR13 0.00 dB -16.31 dB 6:34 02-Hymn to Her
DR15 -0.04 dB -17.80 dB 2:54 03-Rhayadar
DR12 0.00 dB -14.10 dB 5:04 04-Rhayadar Goes to Town
DR13 -15.31 dB -33.14 dB 3:19 05-Preparation
DR12 0.00 dB -14.74 dB 5:06 06-Dunkirk
DR12 0.00 dB -15.76 dB 4:28 07-Drafted
DR14 -0.11 dB -16.06 dB 3:54 08-Docks
DR13 0.00 dB -15.19 dB 4:01 09-Beached
DR12 -13.13 dB -29.04 dB 3:09 10-Spirit of the Water
DR12 0.00 dB -16.26 dB 9:41 11-Ice
DR13 0.00 dB -14.89 dB 4:18 12-Sasquatch
––––––––––––––––––––––––––––––––––––––––

Number of tracks: 12
Official DR value: DR13

Samplerate: 44100 Hz
Channels: 2
Bits per sample: 16
Bitrate: 775 kbps
Codec: WavPack
================================================================================

[CUETools log; Date: 25.03.2017 14:13:51; Version: 2.1.5]
[CTDB TOCID: ZsyHCB9RWYQw_PIGBRIHueMmttE-] found.
Track | CTDB Status
1 | ( 8/10) Accurately ripped
2 | ( 8/10) Accurately ripped
3 | ( 8/10) Accurately ripped
4 | ( 8/10) Accurately ripped
5 | ( 8/10) Accurately ripped
6 | ( 8/10) Accurately ripped
7 | ( 8/10) Accurately ripped
8 | ( 8/10) Accurately ripped
9 | ( 8/10) Accurately ripped
10 | ( 8/10) Accurately ripped
11 | ( 8/10) Accurately ripped
12 | ( 8/10) Accurately ripped
[AccurateRip ID: 001c4565-0100cb45-a60e640c] found.
Track [ CRC | V2 ] Status
01 [1257878e|5e73f163] (2+2/6) Accurately ripped
02 [53ce9342|a1a254a6] (2+2/6) Accurately ripped
03 [f688691e|c15e0272] (2+2/6) Accurately ripped
04 [ed66eebc|8880c6da] (2+2/6) Accurately ripped
05 [be05f1da|f4aaea21] (2+2/6) Accurately ripped
06 [ef79bd95|5c7b6845] (2+2/6) Accurately ripped
07 [7867420a|dc38a8e5] (2+2/6) Accurately ripped
08 [2edc28de|679a0c99] (2+2/6) Accurately ripped
09 [a5756ca2|09092731] (2+2/6) Accurately ripped
10 [a02188e6|b3242bc2] (2+2/6) Accurately ripped
11 [58e0ae78|56129da9] (2+2/6) Accurately ripped
12 [549544f5|a9600028] (2+2/6) Accurately ripped

Track Peak [ CRC32 ] [W/O NULL] [ LOG ]
– 100,0 [51B4BC15] [69859060] CRC32
01 92,1 [897B7CDA] [DFD592E8]
02 100,0 [D9DFC2FA] [51394544]
03 99,4 [30F8E6D7] [BB1628B2]
04 100,0 [7991AC54] [5B34222C]
05 17,1 [5A923E36] [000F2529]
06 100,0 [C7B8CD4D] [4E488F98]
07 100,0 [CCA6EFE7] [E8B5C87F]
08 98,6 [229C1D00] [3F801E7D]
09 100,0 [5681EB8F] [10C10991]
10 22,0 [06611153] [7338653E]
11 100,0 [A4BE6A4E] [10A920C6]
12 100,0 [38265505] [D97A855C]

Camel - Coming Of Age (1998) {Japan 1st Press}

Camel - Coming Of Age (1998) {Japan 1st Press}

Track List CD2:

01. Milk'n Honey [3:21]
02. Mother Road [4:29]
03. Needles [2:31]
04. Rose of Sharon [5:10]
05. Irish Air [0:58]
06. Irish Air (reprise) [2:28]
07. Harbour of Tears [3:17]
08. Cobh [0:52]
09. Send Home the Slates [4:04]
10. Under the Moon [1:47]
11. Watching the Bobbins [7:38]
12. Eyes of Ireland [3:13]
13. Running From Paradise [5:40]
14. End of the Day [2:44]
15. Coming Of Age [7:38]
16. The Hour Candle [7:20]

Exact Audio Copy V1.2 from 12. August 2016

EAC extraction logfile from 23. March 2017, 14:48

Camel / Coming of Age (CD2)[PCCY-01232-2]

Used drive : HL-DT-STBD-RE BH10LS38 Adapter: 1 ID: 1

Read mode : Secure
Utilize accurate stream : Yes
Defeat audio cache : Yes
Make use of C2 pointers : No

Read offset correction : 667
Overread into Lead-In and Lead-Out : No
Fill up missing offset samples with silence : Yes
Delete leading and trailing silent blocks : No
Null samples used in CRC calculations : Yes
Used interface : Installed external ASPI interface

Used output format : User Defined Encoder
Selected bitrate : 128 kBit/s
Quality : High
Add ID3 tag : No
Command line compressor : C:\Program Files (x86)\Exact Audio Copy\wavpack-4.60.1\wavpack.exe
Additional command line options : -hm -w "Year=%year%" -w "Genre=%genre%" %source% %dest%


TOC of the extracted CD

Track | Start | Length | Start sector | End sector
––––––––––––––––––––––––––––-
1 | 0:00.00 | 3:21.35 | 0 | 15109
2 | 3:21.35 | 4:29.35 | 15110 | 35319
3 | 7:50.70 | 2:30.40 | 35320 | 46609
4 | 10:21.35 | 5:09.45 | 46610 | 69829
5 | 15:31.05 | 0:57.55 | 69830 | 74159
6 | 16:28.60 | 2:27.47 | 74160 | 85231
7 | 18:56.32 | 3:16.50 | 85232 | 99981
8 | 22:13.07 | 0:52.00 | 99982 | 103881
9 | 23:05.07 | 4:03.70 | 103882 | 122176
10 | 27:09.02 | 1:47.18 | 122177 | 130219
11 | 28:56.20 | 7:37.70 | 130220 | 164564
12 | 36:34.15 | 3:13.07 | 164565 | 179046
13 | 39:47.22 | 5:39.53 | 179047 | 204524
14 | 45:27.00 | 2:44.22 | 204525 | 216846
15 | 48:11.22 | 7:38.05 | 216847 | 251201
16 | 55:49.27 | 7:20.20 | 251202 | 284221


Range status and errors

Selected range

Filename G:\Rips by Alder\Camel - Coming of Age (CD2)[PCCY-01232-2].wav

Peak level 100.0 %
Extraction speed 7.6 X
Range quality 100.0 %
Test CRC 8251A571
Copy CRC 8251A571
Copy OK

No errors occurred


AccurateRip summary

Track 1 accurately ripped (confidence 2) [52543FB1] (AR v2)
Track 2 accurately ripped (confidence 2) [1B0DCCD5] (AR v2)
Track 3 accurately ripped (confidence 2) [365943FA] (AR v2)
Track 4 accurately ripped (confidence 2) [E5B735CB] (AR v2)
Track 5 accurately ripped (confidence 2) [B34FD790] (AR v2)
Track 6 accurately ripped (confidence 2) [E95968A5] (AR v2)
Track 7 accurately ripped (confidence 2) [C91CC335] (AR v2)
Track 8 accurately ripped (confidence 2) [64A1381D] (AR v2)
Track 9 accurately ripped (confidence 2) [9F705587] (AR v2)
Track 10 accurately ripped (confidence 2) [58CDA23A] (AR v2)
Track 11 accurately ripped (confidence 2) [FB2D7BD0] (AR v2)
Track 12 accurately ripped (confidence 2) [EE0C3AD1] (AR v2)
Track 13 accurately ripped (confidence 2) [5EA62693] (AR v2)
Track 14 accurately ripped (confidence 2) [6922A233] (AR v2)
Track 15 accurately ripped (confidence 2) [F8D64784] (AR v2)
Track 16 accurately ripped (confidence 2) [0765020E] (AR v2)

All tracks accurately ripped

End of status report

–– CUETools DB Plugin V2.1.6

[CTDB TOCID: 16br5Oh29DdKKeWW6kybNC8ImfU-] found
Submit result: 16br5Oh29DdKKeWW6kybNC8ImfU- has been confirmed
Track | CTDB Status
1 | (7/9) Accurately ripped
2 | (7/9) Accurately ripped
3 | (7/9) Accurately ripped
4 | (7/9) Accurately ripped
5 | (7/9) Accurately ripped
6 | (7/9) Accurately ripped
7 | (7/9) Accurately ripped
8 | (7/9) Accurately ripped
9 | (7/9) Accurately ripped
10 | (7/9) Accurately ripped
11 | (7/9) Accurately ripped
12 | (7/9) Accurately ripped
13 | (7/9) Accurately ripped
14 | (7/9) Accurately ripped
15 | (7/9) Accurately ripped
16 | (7/9) Accurately ripped


==== Log checksum EEA1B495BD36AA406300C4CDE78F362233F893CD6F1C1B18DDE8642C9F5EF4FC ====

foobar2000 1.2.6 / Dynamic Range Meter 1.1.1
log date: 2017-03-25 14:26:17

––––––––––––––––––––––––––––––––––––––––
Analyzed: Camel / Coming of Age (CD2)[PCCY-01232-2]
––––––––––––––––––––––––––––––––––––––––

DR Peak RMS Duration Track
––––––––––––––––––––––––––––––––––––––––
DR11 -5.18 dB -21.82 dB 3:21 01-Milk'n Honey
DR13 -0.14 dB -16.06 dB 4:29 02-Mother Road
DR11 -12.53 dB -25.78 dB 2:31 03-Needles
DR13 0.00 dB -18.07 dB 5:10 04-Rose of Sharon
DR9 -13.89 dB -29.12 dB 0:58 05-Irish Air
DR12 -0.10 dB -16.84 dB 2:28 06-Irish Air (reprise)
DR10 -7.38 dB -21.01 dB 3:17 07-Harbour of Tears
DR10 -4.66 dB -19.54 dB 0:52 08-Cobh
DR15 -0.42 dB -18.50 dB 4:04 09-Send Home the Slates
DR9 -1.86 dB -15.30 dB 1:47 10-Under the Moon
DR12 0.00 dB -15.65 dB 7:38 11-Watching the Bobbins
DR14 0.00 dB -19.53 dB 3:13 12-Eyes of Ireland
DR16 0.00 dB -20.48 dB 5:40 13-Running From Paradise
DR11 -7.38 dB -22.68 dB 2:44 14-End of the Day
DR12 -0.01 dB -14.37 dB 7:38 15-Coming Of Age
DR14 0.00 dB -16.76 dB 7:20 16-The Hour Candle
––––––––––––––––––––––––––––––––––––––––

Number of tracks: 16
Official DR value: DR12

Samplerate: 44100 Hz
Channels: 2
Bits per sample: 16
Bitrate: 733 kbps
Codec: WavPack
================================================================================

[CUETools log; Date: 25.03.2017 14:26:20; Version: 2.1.5]
[CTDB TOCID: 16br5Oh29DdKKeWW6kybNC8ImfU-] found.
Track | CTDB Status
1 | ( 8/10) Accurately ripped
2 | ( 8/10) Accurately ripped
3 | ( 8/10) Accurately ripped
4 | ( 8/10) Accurately ripped
5 | ( 8/10) Accurately ripped
6 | ( 8/10) Accurately ripped
7 | ( 8/10) Accurately ripped
8 | ( 8/10) Accurately ripped
9 | ( 8/10) Accurately ripped
10 | ( 8/10) Accurately ripped
11 | ( 8/10) Accurately ripped
12 | ( 8/10) Accurately ripped
13 | ( 8/10) Accurately ripped
14 | ( 8/10) Accurately ripped
15 | ( 8/10) Accurately ripped
16 | ( 8/10) Accurately ripped
[AccurateRip ID: 001fc873-0183248f-e80ecd10] found.
Track [ CRC | V2 ] Status
01 [5d0cec0e|52543fb1] (2+2/6) Accurately ripped
02 [73c6f5ee|1b0dccd5] (2+2/6) Accurately ripped
03 [4feaeaf5|365943fa] (2+2/6) Accurately ripped
04 [f834873f|e5b735cb] (2+2/6) Accurately ripped
05 [792a51f5|b34fd790] (2+2/6) Accurately ripped
06 [f4628f68|e95968a5] (2+2/6) Accurately ripped
07 [f72aab75|c91cc335] (2+2/6) Accurately ripped
08 [07afa54d|64a1381d] (2+2/6) Accurately ripped
09 [e14d8335|9f705587] (2+2/6) Accurately ripped
10 [e34694da|58cda23a] (2+2/6) Accurately ripped
11 [4569f135|fb2d7bd0] (2+2/6) Accurately ripped
12 [11614bc4|ee0c3ad1] (2+2/6) Accurately ripped
13 [fa752911|5ea62693] (2+2/6) Accurately ripped
14 [0d800bea|6922a233] (2+2/6) Accurately ripped
15 [cd0f03e6|f8d64784] (2+2/6) Accurately ripped
16 [f6c4002d|0765020e] (2+2/6) Accurately ripped

Track Peak [ CRC32 ] [W/O NULL] [ LOG ]
– 100,0 [8251A571] [863D7310] CRC32
01 55,0 [0F2A0C2A] [62B8E67E]
02 98,4 [7F74F33C] [2E7F0C69]
03 23,6 [41525F3C] [00B52180]
04 100,0 [B08A492F] [5928F6A1]
05 20,2 [046DD192] [3434466E]
06 98,8 [8E82E142] [965EE6A5]
07 42,7 [39FE9D51] [D6028330]
08 58,4 [FEDCE4A2] [DB4975B0]
09 95,3 [7A8C822A] [64261BDB]
10 80,7 [F656017F] [B9FA210F]
11 100,0 [15247039] [BE714513]
12 100,0 [498169E8] [B5C5CDFE]
13 100,0 [9E01B13C] [19A19F9C]
14 42,7 [C9C9C2D6] [7A7D2213]
15 99,9 [C0581C5C] [91902486]
16 100,0 [A933C12A] [585141FB]

Personnel:
Andrew Latimer – guitar, flute, keyboards, penny whistle, vocals
Colin Bass – bass, vocals, keyboards, 12-string guitar
Dave Stewart – drums, percussion
Foss Patterson – keyboards, vocals

Camel - Coming Of Age (1998) {Japan 1st Press}


All thanks go to Alder

>>> Camel in my Blog <<<

DOWNLOAD: