Tags
Language
Tags

Camel - Live At The Royal Albert Hall (2019)

Posted By: popsakov
Camel - Live At The Royal Albert Hall (2019)

Camel - Live At The Royal Albert Hall (2019)
2CD | EAC Rip | FLAC (Img) + Cue + Log ~ 853 Mb | MP3 CBR320 ~ 319 Mb
Full Scans ~ 20 Mb | 01:05:26 + 01:07:07 | RAR 5% Recovery
Progressive Rock, Jazz Rock | Camel Productions #CP1015CD

Camel At The Royal Albert Hall celebrates Camel's superb Moonmadness 2018 tour. Universally acclaimed by everyone that saw it, the RAH concert was the pinnacle of the tour. With the line-up of Andrew Latimer (guitar/flute/vocals), Colin Bass (bass/vocals), Denis Clement (drums) and Pete Jones (keyboards/vocals), this is Camel at their best.

***************

Track List CD1:

01. Aristillus (intro) [2:05]
02. Song Within a Song [7:52]
03. Chord Change [7:37]
04. Spirit of the Water [2:50]
05. Another Night [7:09]
06. Air Born [5:44]
07. Lunar Sea [11:05]
08. Unevensong [7:31]
09. Hymn to Her [5:53]
10. End of the Line [7:41]

Exact Audio Copy V1.0 beta 3 from 29. August 2011

EAC extraction logfile from 5. September 2020, 14:05

Camel / Camel At The Royal Albert Hall

Used drive : Optiarc DVD RW AD-7240S Adapter: 0 ID: 0

Read mode : Secure
Utilize accurate stream : Yes
Defeat audio cache : Yes
Make use of C2 pointers : No

Read offset correction : 48
Overread into Lead-In and Lead-Out : No
Fill up missing offset samples with silence : Yes
Delete leading and trailing silent blocks : No
Null samples used in CRC calculations : Yes
Used interface : Native Win32 interface for Win NT & 2000

Used output format : User Defined Encoder
Selected bitrate : 128 kBit/s
Quality : High
Add ID3 tag : No
Command line compressor : C:\Program Files (x86)\Exact Audio Copy\Flac\flac.exe
Additional command line options : -V -8 -T "Date=%year%" -T "Genre=%genre%" %source%


TOC of the extracted CD

Track | Start | Length | Start sector | End sector
––––––––––––––––––––––––––––-
1 | 0:00.00 | 2:05.01 | 0 | 9375
2 | 2:05.01 | 7:51.56 | 9376 | 44756
3 | 9:56.57 | 7:36.41 | 44757 | 78997
4 | 17:33.23 | 2:49.43 | 78998 | 91715
5 | 20:22.66 | 7:09.01 | 91716 | 123891
6 | 27:31.67 | 5:43.58 | 123892 | 149674
7 | 33:15.50 | 11:05.05 | 149675 | 199554
8 | 44:20.55 | 7:31.17 | 199555 | 233396
9 | 51:51.72 | 5:53.25 | 233397 | 259896
10 | 57:45.22 | 7:40.51 | 259897 | 294447


Range status and errors

Selected range

Filename M:\Chukvan\Camel - Camel At The Royal Albert Hall CD1.wav

Peak level 100.0 %
Extraction speed 4.3 X
Range quality 100.0 %
Test CRC 3AE32ACA
Copy CRC 3AE32ACA
Copy OK

No errors occurred

End of status report

==== Log checksum EBFB8BB0032FB2132E910F43DDA24C89E307223B9B63125FE5A4771703EEF26B ====

Track List CD2:

01. Coming of Age [8:06]
02. Rajaz [12:23]
03. Ice [9:28]
04. Mother Road [9:31]
05. Hopeless Anger [5:33]
06. Long Goodbyes [7:00]
07. Lady Fantasy [15:06]

Exact Audio Copy V1.0 beta 3 from 29. August 2011

EAC extraction logfile from 5. September 2020, 14:40

Camel / Camel At The Royal Albert Hall

Used drive : Optiarc DVD RW AD-7240S Adapter: 0 ID: 0

Read mode : Secure
Utilize accurate stream : Yes
Defeat audio cache : Yes
Make use of C2 pointers : No

Read offset correction : 48
Overread into Lead-In and Lead-Out : No
Fill up missing offset samples with silence : Yes
Delete leading and trailing silent blocks : No
Null samples used in CRC calculations : Yes
Used interface : Native Win32 interface for Win NT & 2000

Used output format : User Defined Encoder
Selected bitrate : 128 kBit/s
Quality : High
Add ID3 tag : No
Command line compressor : C:\Program Files (x86)\Exact Audio Copy\Flac\flac.exe
Additional command line options : -V -8 -T "Date=%year%" -T "Genre=%genre%" %source%


TOC of the extracted CD

Track | Start | Length | Start sector | End sector
––––––––––––––––––––––––––––-
1 | 0:00.00 | 8:06.27 | 0 | 36476
2 | 8:06.27 | 12:22.74 | 36477 | 92200
3 | 20:29.26 | 9:27.74 | 92201 | 134799
4 | 29:57.25 | 9:31.12 | 134800 | 177636
5 | 39:28.37 | 5:32.39 | 177637 | 202575
6 | 45:01.01 | 6:59.47 | 202576 | 234047
7 | 52:00.48 | 15:06.36 | 234048 | 302033


Range status and errors

Selected range

Filename M:\Chukvan\Camel - Camel At The Royal Albert Hall CD2.wav

Peak level 98.7 %
Extraction speed 4.3 X
Range quality 100.0 %
Test CRC DB3ABD68
Copy CRC DB3ABD68
Copy OK

No errors occurred

End of status report

==== Log checksum D579EFC02D8731DE7DE0C3BD9F54709D86FC09FD8D22C38CD3D4D05E248D6C8E ====

Personnel:
Andrew Latimer - guitars, flute, vocals
Colin Bass - bass, vocals
Pete Jones - keyboards, vocals
Denis Clement - drums

Camel - Live At The Royal Albert Hall (2019)


All thanks go to Chukvan

>>> Camel in my Blog <<<

DOWNLOAD: