Tags
Language
Tags

Camel - Lunar Sea: An Anthology 1973-1985 (2001)

Posted By: popsakov
Camel - Lunar Sea: An Anthology 1973-1985 (2001)

Camel - Lunar Sea: An Anthology 1973-1985 (2001)
2CD | EAC Rip | FLAC (Img) + Cue + Log ~ 960 Mb | MP3 CBR320 ~ 370 Mb
Full Scans ~ 33 Mb | 01:15:33 + 01:18:02 | RAR 5% Recovery
Progressive Rock | Decca #8829952

This double-CD set more or less supplants – though in some ways it also enhances – the 1993 compilation Echoes: The Retrospective. With a slightly longer running time and a fair difference in song content; though the same number of tracks, the overlap between the two is surprisingly limited. Gone are "Unevensong," "Breathless," "Skylines," the studio versions of "Lunar Sea" and "West Berlin," and "City Life," among other tracks – in their place as "Stationary Traveler," "Long Goodbyes," "Slow Yourself Down," "Nimrodel," "The Great Marsh," and "Spirit of the Water," plus live renditions of "Lunar Sea" and "West Berlin." The sound here is also improved somewhat, although Echoes was very good in that department as well, and, to be fair, there's a limited amount that one can do with the earliest recordings in terms of raising the fidelity. The annotation is extremely thorough, and the overall quality of the package makes a worthy addition to any Camel collection, as well as a good introduction to the band for the uninitiated.

~ Bruce Eder, All Music
Camel - Lunar Sea: An Anthology 1973-1985 (2001)


***************

Camel - Lunar Sea: An Anthology 1973-1985 (2001)

Camel - Lunar Sea: An Anthology 1973-1985 (2001)

Track List CD1:

01. Never Let Go [6:23]
02. Slow Yourself Down [4:46]
03. Freefall [5:53]
04. Nimrodel/Procession/White Rider [9:16]
05. The Great Marsh [2:00]
06. Rhayder [3:02]
07. Rhayder Goes to Town [5:22]
08. Lady Fantasy: Encounter/Smiles for You/Lady Fantasy [15:25]
09. A Song Within a Song [7:14]
10. Spirit of the Water [2:06]
11. Air Born [5:03]
12. Lunar Sea [Live] [9:03]

Exact Audio Copy V1.3 from 2. September 2016

EAC extraction logfile from 25. June 2017, 11:10

Camel / Lunar Sea: An Anthology 1973-1985 disc 1

Used drive : ATAPI iHAS122 C Adapter: 1 ID: 0

Read mode : Secure
Utilize accurate stream : Yes
Defeat audio cache : Yes
Make use of C2 pointers : No

Read offset correction : 6
Overread into Lead-In and Lead-Out : No
Fill up missing offset samples with silence : Yes
Delete leading and trailing silent blocks : No
Null samples used in CRC calculations : Yes
Used interface : Native Win32 interface for Win NT & 2000

Used output format : Internal WAV Routines
Sample format : 44.100 Hz; 16 Bit; Stereo


TOC of the extracted CD

Track | Start | Length | Start sector | End sector
––––––––––––––––––––––––––––-
1 | 0:00.00 | 6:22.65 | 0 | 28714
2 | 6:22.65 | 4:45.60 | 28715 | 50149
3 | 11:08.50 | 5:53.07 | 50150 | 76631
4 | 17:01.57 | 9:16.30 | 76632 | 118361
5 | 26:18.12 | 1:59.45 | 118362 | 127331
6 | 28:17.57 | 3:02.00 | 127332 | 140981
7 | 31:19.57 | 5:22.35 | 140982 | 165166
8 | 36:42.17 | 15:25.18 | 165167 | 234559
9 | 52:07.35 | 7:13.65 | 234560 | 267099
10 | 59:21.25 | 2:06.07 | 267100 | 276556
11 | 61:27.32 | 5:02.63 | 276557 | 299269
12 | 66:30.20 | 9:03.10 | 299270 | 340004


Range status and errors

Selected range

Filename C:\Users\London\Desktop\Camel - Lunar Sea- An Anthology 1973-1985 disc 1.wav

Peak level 98.8 %
Extraction speed 9.5 X
Range quality 100.0 %
Test CRC FB884E82
Copy CRC FB884E82
Copy OK

No errors occurred


AccurateRip summary

Track 1 accurately ripped (confidence 6) [D1278C8C] (AR v2)
Track 2 accurately ripped (confidence 6) [F7810E96] (AR v2)
Track 3 accurately ripped (confidence 6) [834E1214] (AR v2)
Track 4 accurately ripped (confidence 6) [D3586458] (AR v2)
Track 5 accurately ripped (confidence 7) [01DDFDD2] (AR v2)
Track 6 accurately ripped (confidence 7) [5D84A217] (AR v2)
Track 7 accurately ripped (confidence 7) [AE9F45B9] (AR v2)
Track 8 accurately ripped (confidence 7) [B6022895] (AR v2)
Track 9 accurately ripped (confidence 6) [E9F56C65] (AR v2)
Track 10 accurately ripped (confidence 6) [9F0FB574] (AR v2)
Track 11 accurately ripped (confidence 6) [9938D99A] (AR v2)
Track 12 accurately ripped (confidence 7) [16ADD480] (AR v2)

All tracks accurately ripped

End of status report

–– CUETools DB Plugin V2.1.6

[CTDB TOCID: _IG0s6Z888omYZih5oZ7s5ZMfqE-] found
Submit result: _IG0s6Z888omYZih5oZ7s5ZMfqE- has been confirmed
Track | CTDB Status
1 | (32/33) Accurately ripped
2 | (32/33) Accurately ripped
3 | (32/33) Accurately ripped
4 | (32/33) Accurately ripped
5 | (32/33) Accurately ripped
6 | (32/33) Accurately ripped
7 | (32/33) Accurately ripped
8 | (32/33) Accurately ripped
9 | (32/33) Accurately ripped
10 | (32/33) Accurately ripped
11 | (32/33) Accurately ripped
12 | (32/33) Accurately ripped


==== Log checksum 8F527ABA5F9E24FC7CD42EDD5B19BFDCA5761BF32D311E5D458DA91762B21BC8 ====

[CUETools log; Date: 25.06.2017 16:30:58; Version: 2.1.5]
[CTDB TOCID: _IG0s6Z888omYZih5oZ7s5ZMfqE-] found.
Track | CTDB Status
1 | (33/34) Accurately ripped
2 | (33/34) Accurately ripped
3 | (33/34) Accurately ripped
4 | (33/34) Accurately ripped
5 | (33/34) Accurately ripped
6 | (33/34) Accurately ripped
7 | (33/34) Accurately ripped
8 | (33/34) Accurately ripped
9 | (33/34) Accurately ripped
10 | (33/34) Accurately ripped
11 | (33/34) Accurately ripped
12 | (33/34) Accurately ripped
[AccurateRip ID: 00206c20-01316345-b611b50c] found.
Track [ CRC | V2 ] Status
01 [14fed84c|d1278c8c] (06+06/22) Accurately ripped
02 [f8655cdb|f7810e96] (06+06/22) Accurately ripped
03 [9c4b3eb7|834e1214] (06+06/22) Accurately ripped
04 [f663329f|d3586458] (06+06/22) Accurately ripped
05 [2bfd2931|01ddfdd2] (06+07/23) Accurately ripped
06 [03439755|5d84a217] (06+07/23) Accurately ripped
07 [47d9b5fb|ae9f45b9] (06+07/23) Accurately ripped
08 [58b08efc|b6022895] (06+07/23) Accurately ripped
09 [5d2842e4|e9f56c65] (06+06/22) Accurately ripped
10 [fd051f40|9f0fb574] (06+06/22) Accurately ripped
11 [6b259b8e|9938d99a] (06+06/22) Accurately ripped
12 [789b2404|16add480] (06+07/23) Accurately ripped
Offsetted by 664:
01 [4dd58848] (06/22) Accurately ripped
02 [3f95a36b] (06/22) Accurately ripped
03 [087ee157] (06/22) Accurately ripped
04 [36765fdf] (06/22) Accurately ripped
05 [87e4dff3] (06/23) Accurately ripped
06 [d8b4f389] (06/23) Accurately ripped
07 [ef70b4f8] (06/23) Accurately ripped
08 [46a947b9] (06/23) Accurately ripped
09 [96a4686c] (06/22) Accurately ripped
10 [3567c7f0] (06/22) Accurately ripped
11 [29dfd356] (06/22) Accurately ripped
12 [18e4afc4] (06/23) Accurately ripped

Track Peak [ CRC32 ] [W/O NULL] [ LOG ]
– 98,8 [FB884E82] [8421B0B3] CRC32
01 98,8 [6B806506] [6F93FD05]
02 98,8 [DEDE4A8F] [7E903734]
03 98,7 [ADA58C12] [0BE57AAD]
04 96,2 [6901204A] [FBF5FFC3]
05 84,5 [6F130B31] [FB65B098]
06 92,5 [0BE86411] [A9F292CD]
07 95,0 [BF5ED2CC] [213255AC]
08 98,8 [A09CC054] [D2BF6FDA]
09 91,1 [D5193EAA] [CA81FD35]
10 60,3 [A523B9A7] [3A0A74C2]
11 67,3 [99D5E14E] [9B0C7A91]
12 98,8 [5E62408D] [C6793C9B]

Camel - Lunar Sea: An Anthology 1973-1985 (2001)

Camel - Lunar Sea: An Anthology 1973-1985 (2001)

Track List CD2:

01. Tell Me [4:09]
02. Elke [4:30]
03. Echoes [7:19]
04. The Sleeper [7:04]
05. Ice [10:14]
06. Hymn To Her [5:36]
07. City Life [5:05]
08. Drafted [4:18]
09. Lies [5:00]
10. Sasquatch [4:43]
11. Cloak And Dagger Man [3:52]
12. Stationary Traveller [5:33]
13. West Berlin [Live] [5:24]
14. Long Goodbyes [5:13]

Exact Audio Copy V1.3 from 2. September 2016

EAC extraction logfile from 25. June 2017, 9:28

Camel / Lunar Sea An Anthology 1973-1985 disc 2

Used drive : ATAPI iHAS122 C Adapter: 1 ID: 0

Read mode : Secure
Utilize accurate stream : Yes
Defeat audio cache : Yes
Make use of C2 pointers : No

Read offset correction : 6
Overread into Lead-In and Lead-Out : No
Fill up missing offset samples with silence : Yes
Delete leading and trailing silent blocks : No
Null samples used in CRC calculations : Yes
Used interface : Native Win32 interface for Win NT & 2000

Used output format : Internal WAV Routines
Sample format : 44.100 Hz; 16 Bit; Stereo


TOC of the extracted CD

Track | Start | Length | Start sector | End sector
––––––––––––––––––––––––––––-
1 | 0:00.00 | 4:09.08 | 0 | 18682
2 | 4:09.08 | 4:30.37 | 18683 | 38969
3 | 8:39.45 | 7:19.30 | 38970 | 71924
4 | 15:59.00 | 7:04.25 | 71925 | 103749
5 | 23:03.25 | 10:14.20 | 103750 | 149819
6 | 33:17.45 | 5:36.23 | 149820 | 175042
7 | 38:53.68 | 5:04.57 | 175043 | 197899
8 | 43:58.50 | 4:18.03 | 197900 | 217252
9 | 48:16.53 | 4:59.42 | 217253 | 239719
10 | 53:16.20 | 4:42.70 | 239720 | 260939
11 | 57:59.15 | 3:52.33 | 260940 | 278372
12 | 61:51.48 | 5:32.42 | 278373 | 303314
13 | 67:24.15 | 5:24.35 | 303315 | 327649
14 | 72:48.50 | 5:12.65 | 327650 | 351114


Range status and errors

Selected range

Filename C:\Users\London\Desktop\Camel - Lunar Sea An Anthology 1973-1985 disc 2.wav

Peak level 98.8 %
Extraction speed 9.7 X
Range quality 99.9 %
Test CRC 8E5B6F14
Copy CRC 8E5B6F14
Copy OK

No errors occurred


AccurateRip summary

Track 1 accurately ripped (confidence 8) [E1C24C16] (AR v2)
Track 2 accurately ripped (confidence 8) [A2F1885F] (AR v2)
Track 3 accurately ripped (confidence 9) [ED1B96AB] (AR v2)
Track 4 accurately ripped (confidence 9) [A84FF97E] (AR v2)
Track 5 accurately ripped (confidence 9) [131EB1C5] (AR v2)
Track 6 accurately ripped (confidence 9) [E628D0AF] (AR v2)
Track 7 accurately ripped (confidence 9) [426A296F] (AR v2)
Track 8 accurately ripped (confidence 9) [80C78C49] (AR v2)
Track 9 accurately ripped (confidence 9) [6C688619] (AR v2)
Track 10 accurately ripped (confidence 9) [44032132] (AR v2)
Track 11 accurately ripped (confidence 9) [0B9BF36A] (AR v2)
Track 12 accurately ripped (confidence 10) [D4B6550A] (AR v2)
Track 13 accurately ripped (confidence 9) [A81966AE] (AR v2)
Track 14 accurately ripped (confidence 9) [A48B2567] (AR v2)

All tracks accurately ripped

End of status report

–– CUETools DB Plugin V2.1.6

[CTDB TOCID: DSbz8P8gxXWye2F7mpUVkviVpps-] found
Submit result: DSbz8P8gxXWye2F7mpUVkviVpps- has been confirmed
Track | CTDB Status
1 | (33/34) Accurately ripped
2 | (33/34) Accurately ripped
3 | (33/34) Accurately ripped
4 | (33/34) Accurately ripped
5 | (33/34) Accurately ripped
6 | (33/34) Accurately ripped
7 | (33/34) Accurately ripped
8 | (33/34) Accurately ripped
9 | (33/34) Accurately ripped
10 | (33/34) Accurately ripped
11 | (33/34) Accurately ripped
12 | (33/34) Accurately ripped
13 | (33/34) Accurately ripped
14 | (33/34) Accurately ripped


==== Log checksum 9F032AFAD5271E5A1AB3BBF4041805742114D1372701FF6D22DA748989F68380 ====

[CUETools log; Date: 25.06.2017 16:31:48; Version: 2.1.5]
[CTDB TOCID: DSbz8P8gxXWye2F7mpUVkviVpps-] found.
Track | CTDB Status
1 | (34/35) Accurately ripped
2 | (34/35) Accurately ripped
3 | (34/35) Accurately ripped
4 | (34/35) Accurately ripped
5 | (34/35) Accurately ripped
6 | (34/35) Accurately ripped
7 | (34/35) Accurately ripped
8 | (34/35) Accurately ripped
9 | (34/35) Accurately ripped
10 | (34/35) Accurately ripped
11 | (34/35) Accurately ripped
12 | (34/35) Accurately ripped
13 | (34/35) Accurately ripped
14 | (34/35) Accurately ripped
[AccurateRip ID: 0029b979-01baf009-d212490e] found.
Track [ CRC | V2 ] Status
01 [618ba15a|e1c24c16] (03+08/11) Accurately ripped
02 [60fc8e41|a2f1885f] (03+08/11) Accurately ripped
03 [db3bc1a9|ed1b96ab] (03+09/12) Accurately ripped
04 [d5ce8450|a84ff97e] (03+09/12) Accurately ripped
05 [55891cd6|131eb1c5] (03+09/12) Accurately ripped
06 [9c88f1b6|e628d0af] (03+09/12) Accurately ripped
07 [3c2396a5|426a296f] (03+09/12) Accurately ripped
08 [e54d43f9|80c78c49] (03+09/12) Accurately ripped
09 [e3865117|6c688619] (03+09/12) Accurately ripped
10 [c30c8d71|44032132] (03+09/12) Accurately ripped
11 [3a181f5e|0b9bf36a] (03+09/12) Accurately ripped
12 [f721a6e2|d4b6550a] (03+10/13) Accurately ripped
13 [de84f548|a81966ae] (03+09/12) Accurately ripped
14 [89d8e09f|a48b2567] (03+09/12) Accurately ripped

Track Peak [ CRC32 ] [W/O NULL] [ LOG ]
– 98,8 [8E5B6F14] [68A58E38] CRC32
01 41,5 [59ADFA43] [1E817F3B]
02 29,3 [68E16A35] [9EA8C6B5]
03 92,4 [4C9C5D23] [3CF08EE0]
04 98,8 [F3FA3E2A] [2B24F12F]
05 98,8 [39B2A3B0] [C5A9E983]
06 98,8 [18B4115B] [4D1AA35B]
07 93,2 [E3DBB60C] [8DAE236D]
08 98,8 [3F297C24] [DF2034E0]
09 98,8 [D60E693C] [F0D9F74B]
10 97,9 [064FFC85] [C2A4B6E0]
11 98,8 [0A0C51C5] [262C127F]
12 98,8 [16F3EEA4] [DE9BC5EE]
13 98,8 [F2140212] [A3DB7A91]
14 94,8 [C35027B2] [2EFB4B93]

Camel - Lunar Sea: An Anthology 1973-1985 (2001)


All thanks go to London

>>> Camel in my Blog <<<

DOWNLOAD: