Tags
Language
Tags

Camel - Moonmadness (1974) {1991, Japanese Reissue} Re-Up

Posted By: popsakov
Camel - Moonmadness (1974) {1991, Japanese Reissue} Re-Up

Camel - Moonmadness (1974) {1991, Japanese Reissue}
EAC Rip | WavPack (Img) + Cue + Log ~ 265 Mb | MP3 CBR320 ~ 99 Mb
Covers Included | 00:39:19 | RAR 5% Recovery
Art Rock, Progressive Rock | DERAM / Polydor K.K. #POCD-1823

Abandoning the lovely soundscapes of Snow Goose, Camel delved into layered guitar and synthesizers similar to those of Pink Floyd's Wish You Were Here on the impressive Moonmadness. Part of the reason behind the shift in musical direction was the label's insistence that Camel venture into more commercial territory after the experimental Snow Goose, and it is true that the music on Moonmadness is more akin to traditional English progressive rock, even though it does occasionally dip into jazz-fusion territory with syncopated rhythms and shimmering keyboards. Furthermore, the songs are a little more concise and accessible than those of its predecessor. That doesn't mean Camel has abandoned art. Moonmadness is indeed a concept album, based loosely on the personalities of each member – "Chord Change" is Peter Bardens, "Air Born" is Andy Latimer, "Lunar Sea" is Andy Ward and "Another Night" is Doug Ferguson. Certainly, it's a concept that is considerably less defined than that of Snow Goose, and the music isn't quite as challenging, yet that doesn't mean that Moonmadness is devoid of pleasure. In fact, with its long stretches of atmospheric instrumentals and spacy solos, it's quite rewarding.

~ Daevid Jehnzen, All Music

***************

Camel - Moonmadness (1974) {1991, Japanese Reissue} Re-Up

Track List:

01. Aristillus [0:01:57.03]
02. Song within a Song [0:07:16.00]
03. Chord Change [0:06:45.57]
04. Spirit of the Water [0:02:07.58]
05. Another Night [0:06:58.17]
06. Air Born [0:05:02.43]
07. Lunar Sea [0:09:11.60]

Personnel:
Andrew Latimer – guitars, flute; vocals (5, 6)
Peter Bardens – keyboards; vocals (4)
Doug Ferguson – bass; vocals (2)
Andy Ward – drums, percussion; voice (1)

Exact Audio Copy V1.2 from 12. August 2016

EAC extraction logfile from 20. March 2017, 16:18

Camel / Moonmadness [POCD-1823]

Used drive : HL-DT-STBD-RE BH10LS38 Adapter: 1 ID: 1

Read mode : Secure
Utilize accurate stream : Yes
Defeat audio cache : Yes
Make use of C2 pointers : No

Read offset correction : 667
Overread into Lead-In and Lead-Out : No
Fill up missing offset samples with silence : Yes
Delete leading and trailing silent blocks : No
Null samples used in CRC calculations : Yes
Used interface : Installed external ASPI interface

Used output format : User Defined Encoder
Selected bitrate : 128 kBit/s
Quality : High
Add ID3 tag : No
Command line compressor : C:\Program Files (x86)\Exact Audio Copy\wavpack-4.60.1\wavpack.exe
Additional command line options : -hm -w "Year=%year%" -w "Genre=%genre%" %source% %dest%


TOC of the extracted CD

Track | Start | Length | Start sector | End sector
––––––––––––––––––––––––––––-
1 | 0:00.37 | 1:57.03 | 37 | 8814
2 | 1:57.40 | 7:16.00 | 8815 | 41514
3 | 9:13.40 | 6:45.57 | 41515 | 71946
4 | 15:59.22 | 2:07.58 | 71947 | 81529
5 | 18:07.05 | 6:58.17 | 81530 | 112896
6 | 25:05.22 | 5:02.43 | 112897 | 135589
7 | 30:07.65 | 9:11.60 | 135590 | 176974


Range status and errors

Selected range

Filename G:\Rips by Alder\Camel - Moonmadness [POCD-1823].wav

Peak level 91.2 %
Extraction speed 6.8 X
Range quality 100.0 %
Test CRC DC6E6FAC
Copy CRC DC6E6FAC
Copy OK

No errors occurred


AccurateRip summary

Track 1 accurately ripped (confidence 3) [384B63B8] (AR v1)
Track 2 accurately ripped (confidence 3) [1F5EF3E0] (AR v1)
Track 3 accurately ripped (confidence 3) [D867933E] (AR v1)
Track 4 accurately ripped (confidence 3) [48B40796] (AR v1)
Track 5 accurately ripped (confidence 3) [E558276D] (AR v1)
Track 6 accurately ripped (confidence 3) [D40B6987] (AR v1)
Track 7 accurately ripped (confidence 3) [D4C5ABC5] (AR v1)

All tracks accurately ripped

End of status report

–– CUETools DB Plugin V2.1.6

[CTDB TOCID: 5odGUN2LilQAOpLFnjel5LYOnCc-] found
Submit result: 5odGUN2LilQAOpLFnjel5LYOnCc- has been confirmed
Track | CTDB Status
1 | (2/2) Accurately ripped
2 | (2/2) Accurately ripped
3 | (2/2) Accurately ripped
4 | (2/2) Accurately ripped
5 | (2/2) Accurately ripped
6 | (2/2) Accurately ripped
7 | (2/2) Accurately ripped


==== Log checksum 23E96222BEDBC330C97A5AC3EBDEE9291A7E0875B9D74C5C3C785EB0E20640F9 ====

[CUETools log; Date: 21.03.2017 22:01:03; Version: 2.1.5]
Pregap length 00:00:37.
[CTDB TOCID: 5odGUN2LilQAOpLFnjel5LYOnCc-] found.
Track | CTDB Status
1 | (3/3) Accurately ripped
2 | (3/3) Accurately ripped
3 | (3/3) Accurately ripped
4 | (3/3) Accurately ripped
5 | (3/3) Accurately ripped
6 | (3/3) Accurately ripped
7 | (3/3) Accurately ripped
[AccurateRip ID: 00099a3a-003b341a-5d093707] found.
Track [ CRC | V2 ] Status
01 [384b63b8|85c29b89] (3+0/3) Accurately ripped
02 [1f5ef3e0|ddc217dc] (3+0/3) Accurately ripped
03 [d867933e|626b7331] (3+0/3) Accurately ripped
04 [48b40796|84c2831b] (3+0/3) Accurately ripped
05 [e558276d|c1ae8c19] (3+0/3) Accurately ripped
06 [d40b6987|6898423e] (3+0/3) Accurately ripped
07 [d4c5abc5|8cda49ec] (3+0/3) Accurately ripped

Track Peak [ CRC32 ] [W/O NULL] [ LOG ]
– 91,1 [DC6E6FAC] [C3DBDFF6] CRC32
01 85,7 [D6ECF86B] [4EDF90A5]
02 91,1 [DC46E355] [156C7C17]
03 91,1 [076A7E69] [ECCBCEAF]
04 83,0 [EAC0B475] [0951B274]
05 91,1 [F0F59439] [8610F433]
06 91,1 [F0A718D0] [348B712D]
07 91,1 [168EABE7] [C4A62F5C]

Camel - Moonmadness (1974) {1991, Japanese Reissue} Re-Up


All thanks go to Alder

>>> Camel in my Blog <<<

DOWNLOAD: