Tags
Language
Tags

Camel - Nude (1981) {1991, Japanese Reissue}

Posted By: popsakov
Camel - Nude (1981) {1991, Japanese Reissue}

Camel - Nude (1981) {1991, Japanese Reissue}
EAC Rip | WavPack (Img) + Cue + Log ~ 253 Mb | MP3 CBR320 ~ 113 Mb
Covers Included | 00:44:52 | RAR 5% Recovery
Art Rock, Progressive Rock | Deram / London Records / Polydor K.K. #POCD-1829

A new, larger version of Camel debuted on Nude, a concept album about a Japanese soldier stranded on a deserted island during World War II and staying there, oblivious to the outside world, for 29 years. More ambitious than the preceding I Can See Your House from Here, Nude is in many ways just as impressive. Although it's a less accessible effort, it has a number of quite intriguing passages, particularly since it boasts heavier improvisation, orchestration, and even some worldbeat influences. It's not as spacy as Camel's earlier progressive rock records, yet it is quite atmospheric, creating its own entrancing world.

~ Daevid Jehnzen, All Music

***************

Camel - Nude (1981) {1991, Japanese Reissue}

Camel - Nude (1981) {1991, Japanese Reissue}

Track List:

01. City Life [0:04:41.50]
02. Nude [0:00:22.55]
03. Drafted [0:04:20.50]
04. Docks [0:03:51.03]
05. Beached [0:03:34.20]
06. Landscapes [0:02:39.55]
07. Changing Places [0:04:11.30]
08. Pomp And Circumstance [0:02:05.17]
09. Please Come Home [0:01:12.00]
10. Reflections [0:02:39.30]
11. Captured [0:03:12.53]
12. The Homecoming [0:02:49.05]
13. Lies [0:05:00.12]
14. The Last Farewell : The Birthday Cake [0:00:30.38]
15. The Last Farewell : Nude's Return [0:03:40.57]

Personnel:
Andrew Latimer – guitars, vocals, flute, koto & various keyboards; lead vocals on «Please Come Home» and «Lies»
Colin Bass – bass, vocals; lead vocals on «City Life» and «Drafted»
Andy Ward – drums, percussion

Additional musicians:
Mel Collins – flute, piccolo, saxophones
Duncan Mackay – keyboards
Jan Schelhaas – piano on «Drafted»
Chris Green – cello on «Drafted»
Gasper Lawal – all percussion on «Changing Places»
Herbie Flowers – tuba on «The Homecoming»

Exact Audio Copy V1.2 from 12. August 2016

EAC extraction logfile from 8. May 2017, 16:24

Camel / Nude [POCD-1829]

Used drive : HL-DT-STBD-RE BH10LS38 Adapter: 1 ID: 1

Read mode : Secure
Utilize accurate stream : Yes
Defeat audio cache : Yes
Make use of C2 pointers : No

Read offset correction : 667
Overread into Lead-In and Lead-Out : No
Fill up missing offset samples with silence : Yes
Delete leading and trailing silent blocks : No
Null samples used in CRC calculations : Yes
Used interface : Installed external ASPI interface

Used output format : User Defined Encoder
Selected bitrate : 128 kBit/s
Quality : High
Add ID3 tag : No
Command line compressor : C:\Program Files (x86)\Exact Audio Copy\wavpack-4.60.1\wavpack.exe
Additional command line options : -hm -w "Year=%year%" -w "Genre=%genre%" %source% %dest%


TOC of the extracted CD

Track | Start | Length | Start sector | End sector
––––––––––––––––––––––––––––-
1 | 0:00.37 | 4:41.50 | 37 | 21161
2 | 4:42.12 | 0:22.55 | 21162 | 22866
3 | 5:04.67 | 4:20.50 | 22867 | 42416
4 | 9:25.42 | 3:51.03 | 42417 | 59744
5 | 13:16.45 | 3:34.20 | 59745 | 75814
6 | 16:50.65 | 2:39.55 | 75815 | 87794
7 | 19:30.45 | 4:11.30 | 87795 | 106649
8 | 23:42.00 | 2:05.17 | 106650 | 116041
9 | 25:47.17 | 1:12.00 | 116042 | 121441
10 | 26:59.17 | 2:39.30 | 121442 | 133396
11 | 29:38.47 | 3:12.53 | 133397 | 147849
12 | 32:51.25 | 2:49.05 | 147850 | 160529
13 | 35:40.30 | 5:00.12 | 160530 | 183041
14 | 40:40.42 | 0:30.38 | 183042 | 185329
15 | 41:11.05 | 3:40.57 | 185330 | 201886


Range status and errors

Selected range

Filename G:\Rips by Alder\Camel - Nude [POCD-1829].wav

Peak level 98.1 %
Extraction speed 7.2 X
Range quality 100.0 %
Test CRC 9C186082
Copy CRC 9C186082
Copy OK

No errors occurred


AccurateRip summary

Track 1 accurately ripped (confidence 3) [7F232B0D] (AR v2)
Track 2 accurately ripped (confidence 3) [DDE437E0] (AR v2)
Track 3 accurately ripped (confidence 3) [13F99254] (AR v2)
Track 4 accurately ripped (confidence 3) [6C282CF8] (AR v2)
Track 5 accurately ripped (confidence 3) [11BDD871] (AR v2)
Track 6 accurately ripped (confidence 3) [A49F7702] (AR v2)
Track 7 accurately ripped (confidence 3) [3C527BA3] (AR v2)
Track 8 accurately ripped (confidence 3) [A5A42343] (AR v2)
Track 9 accurately ripped (confidence 3) [068D2263] (AR v2)
Track 10 accurately ripped (confidence 3) [F9EE6FCE] (AR v2)
Track 11 accurately ripped (confidence 3) [A77E7BB4] (AR v2)
Track 12 accurately ripped (confidence 3) [94665DFC] (AR v2)
Track 13 accurately ripped (confidence 3) [3C94F169] (AR v2)
Track 14 accurately ripped (confidence 3) [67DFA87C] (AR v2)
Track 15 accurately ripped (confidence 3) [D78675FF] (AR v2)

All tracks accurately ripped

End of status report

–– CUETools DB Plugin V2.1.6

[CTDB TOCID: daa1to1jJ.5hoRG_yvsXY1SAW0U-] found
Submit result: daa1to1jJ.5hoRG_yvsXY1SAW0U- has been confirmed
Track | CTDB Status
1 | (3/3) Accurately ripped
2 | (3/3) Accurately ripped
3 | (3/3) Accurately ripped
4 | (3/3) Accurately ripped
5 | (3/3) Accurately ripped
6 | (3/3) Accurately ripped
7 | (3/3) Accurately ripped
8 | (3/3) Accurately ripped
9 | (3/3) Accurately ripped
10 | (3/3) Accurately ripped
11 | (3/3) Accurately ripped
12 | (3/3) Accurately ripped
13 | (3/3) Accurately ripped
14 | (3/3) Accurately ripped
15 | (3/3) Accurately ripped


==== Log checksum 64637467CABE093ACCFE54E2EB55DC8EA22E5999F3D11493C41E5800552AB7A8 ====

foobar2000 1.2.6 / Dynamic Range Meter 1.1.1
log date: 2017-05-13 12:41:03

––––––––––––––––––––––––––––––––––––––––
Analyzed: Camel / Nude [POCD-1829]
––––––––––––––––––––––––––––––––––––––––

DR Peak RMS Duration Track
––––––––––––––––––––––––––––––––––––––––
DR11 -1.16 dB -15.49 dB 4:42 01-City Life
DR8 -17.99 dB -35.93 dB 0:23 02-Nude
DR12 -0.16 dB -15.90 dB 4:21 03-Drafted
DR12 -0.61 dB -15.25 dB 3:51 04-Docks
DR11 -0.73 dB -14.54 dB 3:34 05-Beached
DR10 -3.68 dB -20.00 dB 2:40 06-Landscapes
DR13 -0.97 dB -15.63 dB 4:11 07-Changing Places
DR12 -2.46 dB -20.26 dB 2:05 08-Pomp And Circumstance
DR12 -3.89 dB -18.44 dB 1:12 09-Please Come Home
DR10 -6.49 dB -19.18 dB 2:39 10-Reflections
DR12 -0.46 dB -14.89 dB 3:13 11-Captured
DR10 -2.28 dB -18.62 dB 2:49 12-The Homecoming
DR14 -0.68 dB -16.38 dB 5:00 13-Lies
DR11 -13.56 dB -26.82 dB 0:31 14-The Last Farewell : The Birthday Cake
DR12 -0.96 dB -16.76 dB 3:41 15-The Last Farewell : Nude's Return
––––––––––––––––––––––––––––––––––––––––

Number of tracks: 15
Official DR value: DR11

Samplerate: 44100 Hz
Channels: 2
Bits per sample: 16
Bitrate: 739 kbps
Codec: WavPack
================================================================================

[CUETools log; Date: 13.05.2017 12:41:10; Version: 2.1.5]
Pregap length 00:00:37.
[CTDB TOCID: daa1to1jJ.5hoRG_yvsXY1SAW0U-] found.
Track | CTDB Status
1 | (4/4) Accurately ripped
2 | (4/4) Accurately ripped
3 | (4/4) Accurately ripped
4 | (4/4) Accurately ripped
5 | (4/4) Accurately ripped
6 | (4/4) Accurately ripped
7 | (4/4) Accurately ripped
8 | (4/4) Accurately ripped
9 | (4/4) Accurately ripped
10 | (4/4) Accurately ripped
11 | (4/4) Accurately ripped
12 | (4/4) Accurately ripped
13 | (4/4) Accurately ripped
14 | (4/4) Accurately ripped
15 | (4/4) Accurately ripped
[AccurateRip ID: 00196bd8-011cc26b-c30a830f] found.
Track [ CRC | V2 ] Status
01 [823e0747|7f232b0d] (3+3/6) Accurately ripped
02 [596fa505|dde437e0] (3+3/6) Accurately ripped
03 [680ce561|13f99254] (3+3/6) Accurately ripped
04 [3a351136|6c282cf8] (3+3/6) Accurately ripped
05 [89970209|11bdd871] (3+3/6) Accurately ripped
06 [7e234030|a49f7702] (3+3/6) Accurately ripped
07 [69dca317|3c527ba3] (3+3/6) Accurately ripped
08 [c624009d|a5a42343] (3+3/6) Accurately ripped
09 [9f733a80|068d2263] (3+3/6) Accurately ripped
10 [80304469|f9ee6fce] (3+3/6) Accurately ripped
11 [18dec253|a77e7bb4] (3+3/6) Accurately ripped
12 [df1cab24|94665dfc] (3+3/6) Accurately ripped
13 [6b80dcd7|3c94f169] (3+3/6) Accurately ripped
14 [a1f2ae6d|67dfa87c] (3+3/6) Accurately ripped
15 [960e2110|d78675ff] (3+3/6) Accurately ripped

Track Peak [ CRC32 ] [W/O NULL] [ LOG ]
– 98,1 [9C186082] [4CB74A12] CRC32
01 87,5 [852F1826] [3A4D3E1D]
02 12,6 [F9878D70] [FB29E9CE]
03 98,1 [A9908A07] [4218EC2D]
04 93,2 [A8B29827] [90F3216A]
05 91,9 [C17B526A] [6FA84426]
06 65,4 [68E89CD3] [E80CC155]
07 89,4 [44E7B98B] [5DD66DBC]
08 75,3 [A00A7930] [4D1D207C]
09 63,8 [006F64DE] [EFBA7064]
10 47,3 [819CBB97] [AAEA93D5]
11 94,8 [E4465E06] [C2849FE7]
12 76,9 [CB143AFA] [D3D082CA]
13 92,4 [0F63D290] [8CB2FD75]
14 20,9 [E3823302] [99B964CC]
15 89,5 [CF5DE264] [9F007CD3]

Camel - Nude (1981) {1991, Japanese Reissue}


All thanks go to Alder

>>> Camel in my Blog <<<

DOWNLOAD: