Subcategories

Camel - Pressure Points: Live In Concert (1984) {1991, Japanese Reissue}

Posted By: popsakov
Camel - Pressure Points: Live In Concert (1984) {1991, Japanese Reissue}

Camel - Pressure Points: Live In Concert (1984) {1991, Japanese Reissue}
EAC Rip | WV (Img) + Cue + Log ~ 283 Mb | MP3 CBR320 ~ 116 Mb
Covers Included (JPG, 300 dpi) | RAR 5% Recovery
Art Rock, Progressive Rock | Deram / Polydor #POCD-1832

Camel are an English progressive rock band formed in 1971. Led by founder member Andrew Latimer, they have produced 14 original studio albums, 14 singles plus numerous other compilation and live albums. The band's music combines elements taken from jazz, classical and Baroque music, blues and electronic music. Pressure Points: Live in Concert is a live album by progressive rock band Camel, released in 1984. A remastered version with six bonus tracks was released in 2009 as a double CD Set.
~ Wiki

***************

Camel - Pressure Points: Live In Concert (1984) {1991, Japanese Reissue}

Camel - Pressure Points: Live In Concert (1984) {1991, Japanese Reissue}

Track List:

01. Pressure Points [0:07:17.15]
02. Drafted [0:03:51.40]
03. Captured [0:03:02.23]
04. Lies [0:05:16.35]
05. Sasquatch [0:04:09.42]
06. West Berlin [0:05:19.38]
07. Fingertips [0:04:48.35]
08. Wait [0:04:28.65]
09. Rhayader [0:02:29.35]
10. Rhayader Goes To Town [0:06:05.40]

Personnel:
Andrew Latimer - lead guitar, vocals
Ton Scherpenzeel - lead keyboards
Chris Rainbow - vocals, keyboards
Richie Close - keyboards
Colin Bass - bass, vocals
Paul Burgess - drums, percussion

Guest appearance:
Pete Bardens - organ
Mel Collins - saxophone

Exact Audio Copy V1.2 from 12. August 2016

EAC extraction logfile from 16. October 2017, 20:20

Camel / Pressure Points - Live in Concert [POCD-1832]

Used drive : HL-DT-STBD-RE BH10LS38 Adapter: 1 ID: 1

Read mode : Secure
Utilize accurate stream : Yes
Defeat audio cache : Yes
Make use of C2 pointers : No

Read offset correction : 667
Overread into Lead-In and Lead-Out : No
Fill up missing offset samples with silence : Yes
Delete leading and trailing silent blocks : No
Null samples used in CRC calculations : Yes
Used interface : Installed external ASPI interface

Used output format : User Defined Encoder
Selected bitrate : 128 kBit/s
Quality : High
Add ID3 tag : No
Command line compressor : C:\Program Files (x86)\Exact Audio Copy\wavpack-4.60.1\wavpack.exe
Additional command line options : -hm -w "Year=%year%" -w "Genre=%genre%" %source% %dest%


TOC of the extracted CD

Track | Start | Length | Start sector | End sector
––––––––––––––––––––––––––––-
1 | 0:00.37 | 7:17.15 | 37 | 32826
2 | 7:17.52 | 3:51.40 | 32827 | 50191
3 | 11:09.17 | 3:02.23 | 50192 | 63864
4 | 14:11.40 | 5:16.35 | 63865 | 87599
5 | 19:28.00 | 4:09.42 | 87600 | 106316
6 | 23:37.42 | 5:19.38 | 106317 | 130279
7 | 28:57.05 | 4:48.35 | 130280 | 151914
8 | 33:45.40 | 4:28.65 | 151915 | 172079
9 | 38:14.30 | 2:29.35 | 172080 | 183289
10 | 40:43.65 | 6:05.40 | 183290 | 210704


Range status and errors

Selected range

Filename G:\Rips by Alder\Camel - Pressure Points - Live in Concert [POCD-1832].wav

Peak level 97.2 %
Extraction speed 7.2 X
Range quality 99.9 %
Test CRC 55553C5F
Copy CRC 55553C5F
Copy OK

No errors occurred


AccurateRip summary

Track 1 accurately ripped (confidence 1) [C356ADF4] (AR v2)
Track 2 accurately ripped (confidence 1) [CAEFC6CA] (AR v2)
Track 3 accurately ripped (confidence 1) [21A15CD6] (AR v2)
Track 4 accurately ripped (confidence 1) [63BBC4A7] (AR v2)
Track 5 accurately ripped (confidence 1) [C36C67A8] (AR v2)
Track 6 accurately ripped (confidence 1) [FC341371] (AR v2)
Track 7 accurately ripped (confidence 1) [3F871B2F] (AR v2)
Track 8 accurately ripped (confidence 1) [ABFF9266] (AR v2)
Track 9 accurately ripped (confidence 1) [1526E04C] (AR v2)
Track 10 accurately ripped (confidence 1) [E6A10844] (AR v2)

All tracks accurately ripped

End of status report

–– CUETools DB Plugin V2.1.6

[CTDB TOCID: 13.bOudtzIkyrHz2nEiga_Jc0ng-] found
Submit result: 13.bOudtzIkyrHz2nEiga_Jc0ng- has been confirmed
Track | CTDB Status
1 | (2/2) Accurately ripped
2 | (2/2) Accurately ripped
3 | (2/2) Accurately ripped
4 | (2/2) Accurately ripped
5 | (2/2) Accurately ripped
6 | (2/2) Accurately ripped
7 | (2/2) Accurately ripped
8 | (2/2) Accurately ripped
9 | (2/2) Accurately ripped
10 | (2/2) Accurately ripped


==== Log checksum E33515C4787A28A7FB83B2D102A671E1154BB499924F55A6DC2277C22C0060C9 ====

foobar2000 1.3.16 / Dynamic Range Meter 1.1.1
log date: 2017-10-18 16:20:16

––––––––––––––––––––––––––––––––––––––––
Analyzed: Camel / Pressure Points - Live in Concert [POCD-1832]
––––––––––––––––––––––––––––––––––––––––

DR Peak RMS Duration Track
––––––––––––––––––––––––––––––––––––––––
DR12 -4.31 dB -21.30 dB 7:17 01-Pressure Points
DR13 -3.64 dB -20.26 dB 3:52 02-Drafted
DR13 -2.07 dB -17.67 dB 3:02 03-Captured
DR15 -1.67 dB -18.26 dB 5:16 04-Lies
DR14 -1.27 dB -17.52 dB 4:10 05-Sasquatch
DR15 -1.23 dB -19.04 dB 5:20 06-West Berlin
DR14 -2.98 dB -19.17 dB 4:48 07-Fingertips
DR14 -1.98 dB -17.00 dB 4:29 08-Wait
DR13 -1.94 dB -16.34 dB 2:29 09-Rhayader
DR14 -0.24 dB -16.53 dB 6:06 10-Rhayader Goes To Town
––––––––––––––––––––––––––––––––––––––––

Number of tracks: 10
Official DR value: DR14

Samplerate: 44100 Hz
Channels: 2
Bits per sample: 16
Bitrate: 793 kbps
Codec: WavPack
================================================================================

[CUETools log; Date: 18.10.2017 16:21:00; Version: 2.1.5]
Pregap length 00:00:37.
[CTDB TOCID: 13.bOudtzIkyrHz2nEiga_Jc0ng-] found.
Track | CTDB Status
1 | (3/3) Accurately ripped
2 | (3/3) Accurately ripped
3 | (3/3) Accurately ripped
4 | (3/3) Accurately ripped
5 | (3/3) Accurately ripped
6 | (3/3) Accurately ripped
7 | (3/3) Accurately ripped
8 | (3/3) Accurately ripped
9 | (3/3) Accurately ripped
10 | (3/3) Accurately ripped
[AccurateRip ID: 001224f4-008f0a4c-890af90a] found.
Track [ CRC | V2 ] Status
01 [dab8994e|c356adf4] (0+1/1) Accurately ripped
02 [19f905d7|caefc6ca] (0+1/1) Accurately ripped
03 [1ca821c2|21a15cd6] (0+1/1) Accurately ripped
04 [002f7e75|63bbc4a7] (0+1/1) Accurately ripped
05 [f5990ad5|c36c67a8] (0+1/1) Accurately ripped
06 [cdbe8932|fc341371] (0+1/1) Accurately ripped
07 [d8bf1c20|3f871b2f] (0+1/1) Accurately ripped
08 [0e4b5f68|abff9266] (0+1/1) Accurately ripped
09 [d95102a8|1526e04c] (0+1/1) Accurately ripped
10 [a45dda6a|e6a10844] (0+1/1) Accurately ripped

Track Peak [ CRC32 ] [W/O NULL] [ LOG ]
– 97,2 [55553C5F] [A6CD8146] CRC32
01 60,8 [7CAF4E06] [453BD44E]
02 65,7 [2D927EA9] [6A3BFBE7]
03 78,7 [7C1B8454] [B24DA0A5]
04 82,4 [0D934B9C] [91799030]
05 86,3 [0D6932F2] [62264152]
06 86,7 [BE3C04C3] [D14B1D97]
07 70,9 [99AE3450] [4FA6ABA2]
08 79,5 [3A29D8EA] [EC4BA263]
09 79,9 [1D91C122] [0C8AAE76]
10 97,2 [D1CDE289] [AA4ECB7B]

Camel - Pressure Points: Live In Concert (1984) {1991, Japanese Reissue}

All thanks go to Alder

>>> Camel in my Blog <<<

Download from icerbox.com: