Tags
Language
Tags

Camel - Rajaz (1999) {HDCD, Japan 1st Press}

Posted By: popsakov
Camel - Rajaz (1999) {HDCD, Japan 1st Press}

Camel - Rajaz (1999) {HDCD, Japan 1st Press}
EAC Rip | WavPack (Img) + Cue + Log ~ 358 Mb | MP3 CBR320 ~ 143 Mb
Covers Included | 00:58:10 | RAR 5% Recovery
Progressive Rock | Pony Canyon #PCCY-01414

Rajaz is the thirteenth studio album by Camel, released in 1999. The album's songs have been composed on the camel's walking metre and is considered by many fans to be a return to the band's musical roots of the 1970s.

***************

Camel - Rajaz (1999) {HDCD, Japan 1st Press}

Track List:

01. Three Wishes [0:06:58.72]
02. Lost and Found [0:05:38.20]
03. The Final Encore [0:08:07.00]
04. Rajaz [0:08:15.13]
05. Shout [0:05:15.40]
06. Straight to My Heart [0:06:23.57]
07. Sahara [0:06:44.30]
08. Lawrence [0:10:46.45]

Personnel:
Andrew Latimer – Guitars, vocals, flute, keyboards, percussion
Colin Bass – Bass guitar
Ton Scherpenzeel – Keyboards
Dave Stewart – Drums, percussion

Additional personnel:
Barry Phillips – Cello

Exact Audio Copy V1.2 from 12. August 2016

EAC extraction logfile from 4. April 2017, 15:32

Camel / Rajaz [PCCY-01414]

Used drive : HL-DT-STBD-RE BH10LS38 Adapter: 1 ID: 1

Read mode : Secure
Utilize accurate stream : Yes
Defeat audio cache : Yes
Make use of C2 pointers : No

Read offset correction : 667
Overread into Lead-In and Lead-Out : No
Fill up missing offset samples with silence : Yes
Delete leading and trailing silent blocks : No
Null samples used in CRC calculations : Yes
Used interface : Installed external ASPI interface

Used output format : User Defined Encoder
Selected bitrate : 128 kBit/s
Quality : High
Add ID3 tag : No
Command line compressor : C:\Program Files (x86)\Exact Audio Copy\wavpack-4.60.1\wavpack.exe
Additional command line options : -hm -w "Year=%year%" -w "Genre=%genre%" %source% %dest%


TOC of the extracted CD

Track | Start | Length | Start sector | End sector
––––––––––––––––––––––––––––-
1 | 0:00.00 | 6:58.72 | 0 | 31421
2 | 6:58.72 | 5:38.20 | 31422 | 56791
3 | 12:37.17 | 8:07.00 | 56792 | 93316
4 | 20:44.17 | 8:15.13 | 93317 | 130454
5 | 28:59.30 | 5:15.40 | 130455 | 154119
6 | 34:14.70 | 6:23.57 | 154120 | 182901
7 | 40:38.52 | 6:44.30 | 182902 | 213231
8 | 47:23.07 | 10:46.45 | 213232 | 261726


Range status and errors

Selected range

Filename G:\Rips by Alder\Camel - Rajaz [PCCY-01414].wav

Peak level 100.0 %
Extraction speed 7.6 X
Range quality 99.9 %
Test CRC 3B6FD186
Copy CRC 3B6FD186
Copy OK

No errors occurred


AccurateRip summary

Track 1 accurately ripped (confidence 5) [E0B2C66D] (AR v1)
Track 2 accurately ripped (confidence 5) [81B088E4] (AR v1)
Track 3 accurately ripped (confidence 5) [A29880B9] (AR v1)
Track 4 accurately ripped (confidence 5) [08F87900] (AR v1)
Track 5 accurately ripped (confidence 5) [573AF6E4] (AR v1)
Track 6 accurately ripped (confidence 5) [95D1E92E] (AR v1)
Track 7 accurately ripped (confidence 5) [236C3349] (AR v1)
Track 8 accurately ripped (confidence 5) [6A52CA98] (AR v1)

All tracks accurately ripped

End of status report

–– CUETools DB Plugin V2.1.6

[CTDB TOCID: yfPbqRFYdki3Zh5R88quNaJHLE0-] found
Submit result: yfPbqRFYdki3Zh5R88quNaJHLE0- has been confirmed, yfPbqRFYdki3Zh5R88quNaJHLE0- has been confirmed
Track | CTDB Status
1 | (275/285) Accurately ripped
2 | (273/285) Accurately ripped
3 | (274/285) Accurately ripped
4 | (273/285) Accurately ripped
5 | (274/285) Accurately ripped
6 | (273/285) Accurately ripped
7 | (271/285) Accurately ripped
8 | (270/285) Accurately ripped


==== Log checksum 9F51CD90C6ECC396FBFF6D9D7DAB4C7BE3C08A61A4FC986C13DB9474AEB241A1 ====

foobar2000 1.2.6 / Dynamic Range Meter 1.1.1
log date: 2017-04-18 15:19:23

––––––––––––––––––––––––––––––––––––––––
Analyzed: Camel / Rajaz [PCCY-01414]
––––––––––––––––––––––––––––––––––––––––

DR Peak RMS Duration Track
––––––––––––––––––––––––––––––––––––––––
DR8 0.00 dB -12.13 dB 6:59 01-Three Wishes
DR8 0.00 dB -10.30 dB 5:38 02-Lost and Found
DR8 0.00 dB -10.51 dB 8:07 03-The Final Encore
DR9 0.00 dB -11.79 dB 8:15 04-Rajaz
DR10 0.00 dB -11.59 dB 5:16 05-Shout
DR9 0.00 dB -13.88 dB 6:24 06-Straight to My Heart
DR9 0.00 dB -11.53 dB 6:44 07-Sahara
DR10 0.00 dB -12.98 dB 10:47 08-Lawrence
––––––––––––––––––––––––––––––––––––––––

Number of tracks: 8
Official DR value: DR9

Samplerate: 44100 Hz
Channels: 2
Bits per sample: 16
Bitrate: 810 kbps
Codec: WavPack
================================================================================

[CUETools log; Date: 18.04.2017 15:19:27; Version: 2.1.5]
HDCD: peak extend: none, transient filter: none, gain: none
[CTDB TOCID: yfPbqRFYdki3Zh5R88quNaJHLE0-] found.
Track | CTDB Status
1 | (277/287) Accurately ripped
2 | (275/287) Accurately ripped
3 | (276/287) Accurately ripped
4 | (275/287) Accurately ripped
5 | (276/287) Accurately ripped
6 | (275/287) Accurately ripped
7 | (273/287) Accurately ripped
8 | (272/287) Accurately ripped
[AccurateRip ID: 0011267f-0072d34d-610da108] found.
Track [ CRC | V2 ] Status
01 [e0b2c66d|cae794db] (005+000/186) Accurately ripped
02 [81b088e4|d582f19b] (005+000/187) Accurately ripped
03 [a29880b9|782083a0] (005+000/188) Accurately ripped
04 [08f87900|09024104] (005+000/188) Accurately ripped
05 [573af6e4|9a977754] (005+000/187) Accurately ripped
06 [95d1e92e|c5f1496a] (005+000/188) Accurately ripped
07 [236c3349|23e706e5] (005+000/185) Accurately ripped
08 [6a52ca98|bd9373e1] (005+000/184) Accurately ripped
Offsetted by -2290:
01 [db11d09e] (006/186) Accurately ripped
02 [1d39ff01] (006/187) Accurately ripped
03 [6fc531cc] (006/188) Accurately ripped
04 [d5c653a4] (006/188) Accurately ripped
05 [c0035cd4] (006/187) Accurately ripped
06 [aff8bbe4] (006/188) Accurately ripped
07 [e8f64c84] (006/185) Accurately ripped
08 [aefaa6cc] (006/184) Accurately ripped
Offsetted by -2204:
01 [14f91487] (009/186) Accurately ripped
02 [9fd03232] (009/187) Accurately ripped
03 [606b51c8] (009/188) Accurately ripped
04 [8ab39064] (008/188) Accurately ripped
05 [e405072e] (009/187) Accurately ripped
06 [a29c0196] (009/188) Accurately ripped
07 [cdb02cec] (009/185) Accurately ripped
08 [72411265] (009/184) Accurately ripped
Offsetted by -2192:
01 [e575078f] (003/186) Accurately ripped
02 [1c447784] (003/187) Accurately ripped
03 [2761df3d] (003/188) Accurately ripped
04 [dd4a8421] (003/188) Accurately ripped
05 [3eb031e3] (003/187) Accurately ripped
06 [3c2fd3ad] (003/188) Accurately ripped
07 [a9004809] (003/185) Accurately ripped
08 [d2b36dd9] (003/184) Accurately ripped
Offsetted by -2182:
01 [a90f8519] (005/186) Accurately ripped
02 [a6eecac1] (005/187) Accurately ripped
03 [b73692cc] (005/188) Accurately ripped
04 [732b772e] (006/188) Accurately ripped
05 [527b0554] (005/187) Accurately ripped
06 [5854f745] (005/188) Accurately ripped
07 [850f0425] (005/185) Accurately ripped
08 [a60c9222] (005/184) Accurately ripped
Offsetted by -1592:
01 [d3163fb7] (002/186) Accurately ripped
02 [010d8577] (002/187) Accurately ripped
03 [33959afc] (002/188) Accurately ripped
04 [3362c6de] (002/188) Accurately ripped
05 [36757e3a] (002/187) Accurately ripped
06 [e408d7cf] (002/188) Accurately ripped
07 [e06cf7b7] (002/185) Accurately ripped
08 [81ea7829] (002/184) Accurately ripped
Offsetted by -1523:
01 [8f4adf22] (061/186) Accurately ripped
02 [53ca4d47] (060/187) Accurately ripped
03 [1199e8cb] (061/188) Accurately ripped
04 [c7a9cfde] (061/188) Accurately ripped
05 [107448db] (061/187) Accurately ripped
06 [6f1660e8] (061/188) Accurately ripped
07 [f819899a] (060/185) Accurately ripped
08 [7b3c7525] (060/184) Accurately ripped
Offsetted by -2573:
01 [e3b781de] (002/186) Accurately ripped
02 [1975a656] (002/187) Accurately ripped
03 [a43a2006] (002/188) Accurately ripped
04 [39db54ef] (002/188) Accurately ripped
05 [07f0d589] (002/187) Accurately ripped
06 [7cc3063c] (002/188) Accurately ripped
07 [6723c6f5] (000/185) No match (V2 was not tested)
08 [d6c144a9] (000/184) No match (V2 was not tested)
Offsetted by -2240:
01 [2045fa25] (000/186) No match (V2 was not tested)
02 [d6b4b9be] (000/187) No match (V2 was not tested)
03 [57dc6f56] (000/188) No match (V2 was not tested)
04 [ffbcaa22] (000/188) No match (V2 was not tested)
05 [7524c639] (000/187) No match (V2 was not tested)
06 [6ea4a6a5] (000/188) No match (V2 was not tested)
07 [76bc1b55] (000/185) No match (V2 was not tested)
08 [9506a440] (000/184) No match (V2 was not tested)
Offsetted by -681:
01 [149538e3] (000/186) No match (V2 was not tested)
02 [c90de66d] (000/187) No match (V2 was not tested)
03 [09898fde] (000/188) No match (V2 was not tested)
04 [eb36295c] (000/188) No match (V2 was not tested)
05 [d61f8b16] (000/187) No match (V2 was not tested)
06 [53899169] (000/188) No match (V2 was not tested)
07 [8d34da8f] (000/185) No match (V2 was not tested)
08 [8fe86d5e] (000/184) No match (V2 was not tested)

Track Peak [ CRC32 ] [W/O NULL] [ LOG ]
– 100,0 [3B6FD186] [4567C2C8] CRC32
01 100,0 [E473CB6E] [02E0F8BC]
02 100,0 [97EFD6C2] [E1B8506D]
03 100,0 [196BCDCA] [267222FD]
04 99,9 [6EB36931] [0A60B52D]
05 100,0 [35B6746C] [81DF1A2B]
06 100,0 [C74DD02E] [4BA4CC4D]
07 100,0 [3D564A6B] [1B7EA075]
08 100,0 [28EF991B] [2B2F45B5]

Camel - Rajaz (1999) {HDCD, Japan 1st Press}


All thanks go to Alder

>>> Camel in my Blog <<<

DOWNLOAD: