Camel - The Single Factor (1982) (1991, Japan 1st Press}

Posted By: popsakov
Camel - The Single Factor (1982) (1991, Japan 1st Press}

Camel - The Single Factor (1982) (1991, Japan 1st Press}
EAC Rip | WV (Img) + Cue + Log ~ 231 Mb | MP3 CBR320 ~ 98 Mb
Scans Included (JPG, 300 dpi) | RAR 5% Recovery
Progressive Rock, Art Rock | Deram / Polydor K.K. #POCD-1830

Following the ambitious song cycle Nude, Camel attempted their version of an Alan Parsons Project album with The Single Factor. Considering that Parsons was having hits that year with songs like "Eye in the Sky," it's not surprising that Camel tried to capture the same audience, yet their talent didn't lay with pop music – it lay with atmospheric instrumentals and creating detailed soundscapes. Consequently, The Single Factor sounds a little forced and often fails to capture the group's magic, even though there a few strong moments on the record.
~ Daevid Jehnzen, All Music

***************

Camel - The Single Factor (1982) (1991, Japan 1st Press}

Camel - The Single Factor (1982) (1991, Japan 1st Press}

Track List:

01. No Easy Answer [0:02:56.70]
02. You Are The One [0:05:24.42]
03. Heroes [0:04:52.15]
04. Selva [0:03:35.45]
05. Lullabye [0:00:58.13]
06. Sasquatch [0:04:43.30]
07. Manic [0:04:27.02]
08. Camelogue [0:03:42.43]
09. Toady's Goodbye [0:04:08.20]
10. A Heart's Desire [0:01:11.27]
11. End Peace [0:02:52.43]

Personnel:
Andy Latimer - lead vocals, guitar, piano, keyboards, Mellotron (B 2), organ (B 4), bass (B 2)
David Paton - bass, backing vocals, lead vocals (A 3)
Chris Rainbow - backing vocals, lead vocals (B 5)
Anthony Phillips - organ (A 3, B 2), grand piano (A 3, B 2, 6), Polymoog (B 2, 6), ARP 2600 (B 6), marimba (B 6), acoustic guitar (A 4), 12-string guitar (B1)
Graham Jarvis - drums
Peter Bardens - organ, Minimoog (B1)
Haydn Bendall - Yamaha CS80 synthesizer (A 3)
Duncan Mackay - Prophet synthesizer (A 4)
Francis Monkman - synclavier (B 2)
Dave Mattacks - drums (A 3)
Simon Phillips - drums (B 1)
Tristan Fry - glockenspiel (B 2)
Jack Emblow - accordion (B 5)

Exact Audio Copy V1.2 from 12. August 2016

EAC extraction logfile from 31. July 2017, 19:53

Camel / The Single Factor [POCD-1830]

Used drive : HL-DT-STBD-RE BH10LS38 Adapter: 1 ID: 1

Read mode : Secure
Utilize accurate stream : Yes
Defeat audio cache : Yes
Make use of C2 pointers : No

Read offset correction : 667
Overread into Lead-In and Lead-Out : No
Fill up missing offset samples with silence : Yes
Delete leading and trailing silent blocks : No
Null samples used in CRC calculations : Yes
Used interface : Installed external ASPI interface

Used output format : User Defined Encoder
Selected bitrate : 128 kBit/s
Quality : High
Add ID3 tag : No
Command line compressor : C:\Program Files (x86)\Exact Audio Copy\wavpack-4.60.1\wavpack.exe
Additional command line options : -hm -w "Year=%year%" -w "Genre=%genre%" %source% %dest%


TOC of the extracted CD

Track | Start | Length | Start sector | End sector
––––––––––––––––––––––––––––-
1 | 0:00.37 | 2:56.70 | 37 | 13306
2 | 2:57.32 | 5:24.42 | 13307 | 37648
3 | 8:21.74 | 4:52.15 | 37649 | 59563
4 | 13:14.14 | 3:35.45 | 59564 | 75733
5 | 16:49.59 | 0:58.13 | 75734 | 80096
6 | 17:47.72 | 4:43.30 | 80097 | 101351
7 | 22:31.27 | 4:27.02 | 101352 | 121378
8 | 26:58.29 | 3:42.43 | 121379 | 138071
9 | 30:40.72 | 4:08.20 | 138072 | 156691
10 | 34:49.17 | 1:11.27 | 156692 | 162043
11 | 36:00.44 | 2:52.43 | 162044 | 174986


Range status and errors

Selected range

Filename G:\Rips by Alder\Camel - The Single Factor [POCD-1830].wav

Peak level 95.1 %
Extraction speed 6.9 X
Range quality 100.0 %
Test CRC 2972CBB5
Copy CRC 2972CBB5
Copy OK

No errors occurred


AccurateRip summary

Track 1 accurately ripped (confidence 2) [7A29FEB7] (AR v1)
Track 2 accurately ripped (confidence 2) [BFE0864D] (AR v1)
Track 3 accurately ripped (confidence 2) [CDB6775C] (AR v1)
Track 4 accurately ripped (confidence 2) [D1352FBB] (AR v1)
Track 5 accurately ripped (confidence 2) [4F0F66ED] (AR v1)
Track 6 accurately ripped (confidence 2) [DF073135] (AR v1)
Track 7 accurately ripped (confidence 2) [EAB37D0C] (AR v1)
Track 8 accurately ripped (confidence 2) [AA120951] (AR v1)
Track 9 accurately ripped (confidence 2) [D9899B98] (AR v1)
Track 10 accurately ripped (confidence 2) [A99A4DB6] (AR v1)
Track 11 accurately ripped (confidence 2) [025DBE2F] (AR v1)

All tracks accurately ripped

End of status report

–– CUETools DB Plugin V2.1.6

[CTDB TOCID: owsayNAeLZZSuu_uFeu09iLJC6o-] found
Submit result: owsayNAeLZZSuu_uFeu09iLJC6o- has been confirmed
Track | CTDB Status
1 | (3/3) Accurately ripped
2 | (3/3) Accurately ripped
3 | (3/3) Accurately ripped
4 | (3/3) Accurately ripped
5 | (3/3) Accurately ripped
6 | (3/3) Accurately ripped
7 | (3/3) Accurately ripped
8 | (3/3) Accurately ripped
9 | (3/3) Accurately ripped
10 | (3/3) Accurately ripped
11 | (3/3) Accurately ripped


==== Log checksum 0709C170C6978C8FCBA107572B6E8D1E7891DABB0424862DD31E7CA361984F93 ====

foobar2000 1.2.6 / Dynamic Range Meter 1.1.1
log date: 2017-07-31 22:19:50

––––––––––––––––––––––––––––––––––––––––
Analyzed: Camel / The Single Factor [POCD-1830]
––––––––––––––––––––––––––––––––––––––––

DR Peak RMS Duration Track
––––––––––––––––––––––––––––––––––––––––
DR13 -0.43 dB -16.11 dB 2:57 01-No Easy Answer
DR13 -0.67 dB -16.34 dB 5:25 02-You Are The One
DR12 -2.18 dB -19.14 dB 4:52 03-Heroes
DR10 -6.42 dB -18.15 dB 3:36 04-Selva
DR5 -8.55 dB -25.14 dB 0:58 05-Lullabye
DR11 -2.24 dB -16.29 dB 4:43 06-Sasquatch
DR11 -2.23 dB -15.90 dB 4:27 07-Manic
DR12 -3.08 dB -18.31 dB 3:43 08-Camelogue
DR13 -1.48 dB -17.14 dB 4:08 09-Toady's Goodbye
DR10 -8.53 dB -21.67 dB 1:11 10-A Heart's Desire
DR10 -3.84 dB -17.52 dB 2:53 11-End Peace
––––––––––––––––––––––––––––––––––––––––

Number of tracks: 11
Official DR value: DR11

Samplerate: 44100 Hz
Channels: 2
Bits per sample: 16
Bitrate: 778 kbps
Codec: WavPack
================================================================================

[CUETools log; Date: 31.07.2017 22:19:17; Version: 2.1.5]
Pregap length 00:00:37.
[CTDB TOCID: owsayNAeLZZSuu_uFeu09iLJC6o-] found.
Track | CTDB Status
1 | (4/4) Accurately ripped
2 | (4/4) Accurately ripped
3 | (4/4) Accurately ripped
4 | (4/4) Accurately ripped
5 | (4/4) Accurately ripped
6 | (4/4) Accurately ripped
7 | (4/4) Accurately ripped
8 | (4/4) Accurately ripped
9 | (4/4) Accurately ripped
10 | (4/4) Accurately ripped
11 | (4/4) Accurately ripped
[AccurateRip ID: 00111a92-0092a11a-7f091d0b] found.
Track [ CRC | V2 ] Status
01 [7a29feb7|6e11af14] (2+0/2) Accurately ripped
02 [bfe0864d|68416407] (2+0/2) Accurately ripped
03 [cdb6775c|4256fd23] (2+0/2) Accurately ripped
04 [d1352fbb|b19e5ac8] (2+0/2) Accurately ripped
05 [4f0f66ed|c141d50d] (2+0/2) Accurately ripped
06 [df073135|31a1f338] (2+0/2) Accurately ripped
07 [eab37d0c|2973258e] (2+0/2) Accurately ripped
08 [aa120951|a915e86b] (2+0/2) Accurately ripped
09 [d9899b98|c1db51a6] (2+0/2) Accurately ripped
10 [a99a4db6|c2be3c4b] (2+0/2) Accurately ripped
11 [025dbe2f|4d5e7121] (2+0/2) Accurately ripped

Track Peak [ CRC32 ] [W/O NULL] [ LOG ]
– 95,1 [2972CBB5] [54260D0C] CRC32
01 95,1 [4FF2C378] [BD556556]
02 92,5 [1AF9742C] [252EE4B8]
03 77,7 [4B18DD49] [AB56EAA4]
04 47,7 [F3B85C0F] [953A89C1]
05 37,3 [C7AEBC37] [4018B4D2]
06 77,3 [7AF71333] [5786E862]
07 77,3 [25B66539] [AED3A9E9]
08 70,1 [E23F0AF0] [D80ABC26]
09 84,3 [16AF005C] [35BB764A]
10 37,4 [CDB733CE] [C3A2D36B]
11 64,2 [F69EC62B] [CB9525FC]

Camel - The Single Factor (1982) (1991, Japan 1st Press}

All thanks go to Alder

>>> Camel in my Blog <<<

Download from icerbox.com: