Subcategories

Camel - Pressure Points - Live in Concert (1984) [2CD Reissue 2009] (Repost)

Posted By: gribovar
Camel - Pressure Points - Live in Concert (1984) [2CD Reissue 2009] (Repost)

Camel - Pressure Points - Live in Concert (1984) [2CD Reissue 2009]
EAC Rip | FLAC (image+.cue+log) - 564 MB | MP3 CBR 320 kbps (LAME 3.93) - 200 MB | Covers - 148 MB
Genre: Progressive Rock | RAR 3% Rec. | Label: Esoteric Recordings (ECLEC 22162)

Unlike many bands whose careers had begun in the 1970s, Camel continued to enjoy much success in the 1980s, producing fine studio albums such as Stationary Traveller. Although destined to be Camel's final studio album for Decca Records, it was a fine effort. The subsequent tour to promote the album was equally memorable and was captured by Decca at Hammersmith Odeon on 11th May 1984 and released as the album Pressure Points later that year. The concert saw Camel joined by former member Peter Bardens for certain songs during the set, including a rousing version of Lady Fantasy, not featured on the original album. Long unavailable on CD, this newly re-mastered Esoteric Recordings reissue has been expanded to a 2CD set to include songs not featured on the original album.

CD 1 Tracklist:
01. Pressure Points
02. Drafted
03. Captured
04. Lies
05. Refugee (previously unreleased on CD)
06. Vopos (previously unreleased on CD)
07. Stationary Traveller (previously unreleased on CD)
08. West Berlin
09. Fingertips

Total time: 44:13

CD 2 Tracklist:
01. Sasquatch
02. Wait
03. Cloak and Dagger Man (previously unreleased on CD)
04. Long Goodbyes (previously unreleased on CD)
05. Rhayader
06. Rhayader Goes to Town
07. Lady Fantasy (previously unreleased on CD)

Total time: 40:53

Exact Audio Copy V0.99 prebeta 5 from 4. May 2009

EAC extraction logfile from 30. October 2010, 20:07

Camel / Pressure Points (Disc 1)

Used drive : ASUS DRW-24B1LT Adapter: 1 ID: 1

Read mode : Secure
Utilize accurate stream : Yes
Defeat audio cache : Yes
Make use of C2 pointers : No

Read offset correction : 6
Overread into Lead-In and Lead-Out : No
Fill up missing offset samples with silence : Yes
Delete leading and trailing silent blocks : No
Null samples used in CRC calculations : Yes
Used interface : Native Win32 interface for Win NT & 2000

Used output format : User Defined Encoder
Selected bitrate : 1024 kBit/s
Quality : High
Add ID3 tag : Yes
Command line compressor : C:\Program Files (x86)\FLAC\flac.exe
Additional command line options : -6 -V -T "ARTIST=%a" -T "TITLE=%t" -T "ALBUM=%g" -T "DATE=%y" -T "TRACKNUMBER=%n" -T "GENRE=%m" -T "COMMENT=%e" %s -o %d


TOC of the extracted CD

Track | Start | Length | Start sector | End sector
––––––––––––––––––––––––––––-
1 | 0:00.00 | 7:17.34 | 0 | 32808
2 | 7:17.34 | 3:50.13 | 32809 | 50071
3 | 11:07.47 | 3:02.33 | 50072 | 63754
4 | 14:10.05 | 5:10.64 | 63755 | 87068
5 | 19:20.69 | 3:48.01 | 87069 | 104169
6 | 23:08.70 | 5:49.11 | 104170 | 130355
7 | 28:58.06 | 5:16.12 | 130356 | 154067
8 | 34:14.18 | 5:18.25 | 154068 | 177942
9 | 39:32.43 | 4:40.30 | 177943 | 198972


Range status and errors

Selected range

Filename Y:\EAC\sole-survivor\Camel\CD1\Camel - Pressure Points (Disc 1).wav

Peak level 98.8 %
Range quality 100.0 %
Copy CRC 24437D43
Copy OK

No errors occurred


AccurateRip summary

Track 1 accurately ripped (confidence 4) [6944E60F]
Track 2 accurately ripped (confidence 4) [1E72323B]
Track 3 accurately ripped (confidence 4) [7796F900]
Track 4 accurately ripped (confidence 4) [3AFECC7C]
Track 5 accurately ripped (confidence 4) [19832068]
Track 6 accurately ripped (confidence 4) [16379F2D]
Track 7 accurately ripped (confidence 4) [D582091E]
Track 8 accurately ripped (confidence 3) [24425CAE]
Track 9 accurately ripped (confidence 4) [CDE5E7B9]

All tracks accurately ripped

End of status report

[CUETools log; Date: 10.08.2018 2:11:00; Version: 2.1.4]
[CTDB TOCID: w.GLgkKM6Lqbl0aVpRpJ7xSRQnI-] found.
Track | CTDB Status
1 | (32/33) Accurately ripped
2 | (32/33) Accurately ripped
3 | (32/33) Accurately ripped
4 | (32/33) Accurately ripped
5 | (32/33) Accurately ripped
6 | (32/33) Accurately ripped
7 | (32/33) Accurately ripped
8 | (32/33) Accurately ripped
9 | (32/33) Accurately ripped
[AccurateRip ID: 000f3f2f-006ee491-760a5c09] found.
Track [ CRC | V2 ] Status
01 [6944e60f|d8ae5aec] (05+14/19) Accurately ripped
02 [1e72323b|266e839d] (05+15/20) Accurately ripped
03 [7796f900|42ee110c] (05+15/20) Accurately ripped
04 [3afecc7c|27267f99] (05+16/21) Accurately ripped
05 [19832068|3824ebc4] (05+15/20) Accurately ripped
06 [16379f2d|9c33f0b8] (05+15/20) Accurately ripped
07 [d582091e|c55c30f4] (05+16/21) Accurately ripped
08 [24425cae|a27fb774] (04+15/19) Accurately ripped
09 [cde5e7b9|b35fa0f2] (05+15/20) Accurately ripped

Track Peak [ CRC32 ] [W/O NULL] [ LOG ]
– 98,8 [24437D43] [A2343015] CRC32
01 98,8 [C00EF1A9] [44AABA69]
02 98,8 [7DC5BFFC] [31370765]
03 98,8 [C4E830D0] [7DA6F240]
04 98,8 [E5C0E3CB] [611D6F69]
05 98,8 [8CC8C36C] [854E630C]
06 98,8 [104E184A] [EFBF2F6D]
07 98,8 [9035DDFD] [5DB6AF82]
08 98,8 [A275657F] [B33C736F]
09 98,8 [EB749E85] [6E2C793E]

Exact Audio Copy V0.99 prebeta 5 from 4. May 2009

EAC extraction logfile from 30. October 2010, 20:31

Camel / Pressure Points (Disc 2)

Used drive : ASUS DRW-24B1LT Adapter: 1 ID: 1

Read mode : Secure
Utilize accurate stream : Yes
Defeat audio cache : Yes
Make use of C2 pointers : No

Read offset correction : 6
Overread into Lead-In and Lead-Out : No
Fill up missing offset samples with silence : Yes
Delete leading and trailing silent blocks : No
Null samples used in CRC calculations : Yes
Used interface : Native Win32 interface for Win NT & 2000

Used output format : User Defined Encoder
Selected bitrate : 1024 kBit/s
Quality : High
Add ID3 tag : Yes
Command line compressor : C:\Program Files (x86)\FLAC\flac.exe
Additional command line options : -6 -V -T "ARTIST=%a" -T "TITLE=%t" -T "ALBUM=%g" -T "DATE=%y" -T "TRACKNUMBER=%n" -T "GENRE=%m" -T "COMMENT=%e" %s -o %d


TOC of the extracted CD

Track | Start | Length | Start sector | End sector
––––––––––––––––––––––––––––-
1 | 0:00.00 | 4:05.57 | 0 | 18431
2 | 4:05.57 | 4:20.65 | 18432 | 37996
3 | 8:26.47 | 4:03.56 | 37997 | 56277
4 | 12:30.28 | 6:44.67 | 56278 | 86644
5 | 19:15.20 | 2:28.64 | 86645 | 97808
6 | 21:44.09 | 6:27.54 | 97809 | 126887
7 | 28:11.63 | 12:40.53 | 126888 | 183940


Range status and errors

Selected range

Filename Y:\EAC\sole-survivor\Camel\CD2\Camel - Pressure Points (Disc 2).wav

Peak level 98.8 %
Range quality 100.0 %
Copy CRC 628AA909
Copy OK

No errors occurred


AccurateRip summary

Track 1 accurately ripped (confidence 4) [39AE509F]
Track 2 accurately ripped (confidence 4) [BF92BB59]
Track 3 accurately ripped (confidence 4) [AF1DE64E]
Track 4 accurately ripped (confidence 4) [E400FB94]
Track 5 accurately ripped (confidence 4) [673D0B12]
Track 6 accurately ripped (confidence 4) [BBF482A3]
Track 7 accurately ripped (confidence 4) [FB332924]

All tracks accurately ripped

End of status report

[CUETools log; Date: 10.08.2018 2:11:49; Version: 2.1.4]
[CTDB TOCID: 5OOZCs0cfeEzEopGYq3FYRKPRTs-] found.
Track | CTDB Status
1 | (31/32) Accurately ripped
2 | (31/32) Accurately ripped
3 | (31/32) Accurately ripped
4 | (31/32) Accurately ripped
5 | (31/32) Accurately ripped
6 | (31/32) Accurately ripped
7 | (31/32) Accurately ripped
[AccurateRip ID: 000946f6-00394f0f-55099407] found.
Track [ CRC | V2 ] Status
01 [39ae509f|b715484b] (05+14/19) Accurately ripped
02 [bf92bb59|8a426d3d] (05+15/20) Accurately ripped
03 [af1de64e|8306b5ad] (05+15/20) Accurately ripped
04 [e400fb94|79c3ec86] (05+15/20) Accurately ripped
05 [673d0b12|18532bb3] (05+15/20) Accurately ripped
06 [bbf482a3|a0b53bd1] (05+16/21) Accurately ripped
07 [fb332924|89726ab5] (05+15/20) Accurately ripped

Track Peak [ CRC32 ] [W/O NULL] [ LOG ]
– 98,8 [628AA909] [B4F10F63] CRC32
01 98,8 [EB742A7F] [EE3DC789]
02 98,8 [40B99C59] [2091AB4F]
03 98,8 [FB0AD6DD] [DD7CD24F]
04 98,8 [75C4B6F8] [3B5E463E]
05 98,8 [CEFC42A1] [CA05A6C1]
06 98,8 [E7090568] [4F00F2BE]
07 98,8 [4DA8AEF9] [3225FACC]

Thanks to wurensh