Subcategories
Tags
Language
Tags

Camila Cabello - Romance (2019) {Japanese Edition}

Posted By: popsakov
Camila Cabello - Romance (2019) {Japanese Edition}

Camila Cabello - Romance (2019) {Japanese Edition}
EAC Rip | FLAC (Img) + Cue + Log ~ 292 Mb | MP3 CBR320 ~ 106 Mb
Full Scans ~ 199 Mb | 00:43:58 | RAR 5% Recovery
Syco Music / Epic / Sony Music Labels Inc. #SICP 6240
Pop / Dance-Pop / Latin Pop

Is there a name for the opposite of a break-up album? Because that's what Camila Cabello's sophomore effort Romance feels like: a record as bursting with ecstatic emotion and erotic desire as the exuberant delirium of having just fallen in love. It's a palpable vibe she put on display during her blush-inducing performance of the single "Señorita" with her duet partner (and rumored boyfriend) Shawn Mendes at the 2019 American Music Awards. The performance ended with Cabello and Mendes teasing a kiss, a bold move that left the audience excited for what the rest of Romance would hold. What Cabello does reveal on Romance is an artist continuing to refine her distinctive pop persona as she happens to be deep in the sway of love. Working with a respectable cadre of songwriters and producers including Andrew Watt, Finneas O'Connell, Justin Tranter, and others, Cabello digs deeper into her Cuban heritage with songs like the aforementioned "Señorita," the horn-accented "Liar," and the yearning "Used to This," that display her growing sense of maturity, balancing pop, reggae, and R&B flourishes with even more Latin embellishments. If 2018's Camila was about striking out on her own after leaving her former group Fifth Harmony, then Romance is about Cabello defining herself in the pop landscape and setting herself apart from contemporaries like Ariana Grande, Dua Lipa, and Taylor Swift. There is one break-up song on the album in "Should've Said It," a defiantly steamy anthem in which Cabello reclaims her independence from a former flame against the backdrop of a Santana-esque guitar hook. She strikes an equally swaggering, rock-inflected stance elsewhere, leaning into her throaty, scritch-scratch vocals on "Shameless" and showcasing her knack for soaring falsetto balladry on "Living Proof." Along with catchy hooks, what makes Romance particularly compelling is Cabello's candor and willingness to share her experiences and emotions in striking detail. On "Easy" she sings, "I never like my crooked teeth/You tell me they're your favorite thing/Anything else?/The stretch marks all around my thighs/Kiss 'em 'till I change my mind about everything else." If Romance is an album about Cabello feeling loved and seen by someone else, it's just as much about her seeing and understanding herself as an artist.

~ Matt Collar, All Music

***************

Track List:

01. Shameless [0:03:39.46]
02. Living Proof [0:03:14.29]
03. Camila Cabello Feat. DaBaby / Should've Said It [0:03:20.60]
04. Camila Cabello with Shawn Mendes / Senorita [0:03:10.61]
05. Liar [0:03:28.22]
06. Bad Kind Of Butterflies [0:02:49.35]
07. Easy [0:03:14.43]
08. Feel It Twice [0:03:09.04]
09. Dream Of You [0:03:42.60]
10. Cry For Me [0:03:09.10]
11. This Love [0:03:40.20]
12. Used To THis [0:03:29.63]
13. First Man [0:03:48.70]

Exact Audio Copy V1.3 from 2. September 2016

Отчёт EAC об извлечении, выполненном 6. апреля 2021, 19:51

Camila Cabello / Romance

Дисковод: PLEXTOR DVDR PX-755A Adapter: 1 ID: 1

Режим чтения : Достоверность
Использование точного потока : Да
Отключение кэша аудио : Да
Использование указателей C2 : Нет

Коррекция смещения при чтении : 30
Способность читать области Lead-in и Lead-out : Нет
Заполнение пропущенных сэмплов тишиной : Да
Удаление блоков с тишиной в начале и конце : Нет
При вычислениях CRC использовались нулевые сэмплы : Да
Интерфейс : Встроенный Win32-интерфейс для Win NT/2000

Выходной формат : Пользовательский кодировщик
Выбранный битрейт : 128 kBit/s
Качество : Высокий
Добавление ID3-тега : Нет
Утилита сжатия : C:\Program Files (x86)\Exact Audio Copy\Flac\flac.exe
Дополнительные параметры : -V -8 -T "Date=%year%" -T "Genre=%genre%" %source%


TOC извлечённого CD

Трек | Старт | Длительность | Начальный сектор | Конечный сектор
––––––––––––––––––––––––––––––––––-
1 | 0:00.00 | 3:39.46 | 0 | 16470
2 | 3:39.46 | 3:14.29 | 16471 | 31049
3 | 6:54.00 | 3:20.60 | 31050 | 46109
4 | 10:14.60 | 3:10.61 | 46110 | 60420
5 | 13:25.46 | 3:28.22 | 60421 | 76042
6 | 16:53.68 | 2:49.35 | 76043 | 88752
7 | 19:43.28 | 3:14.43 | 88753 | 103345
8 | 22:57.71 | 3:09.04 | 103346 | 117524
9 | 26:07.00 | 3:42.60 | 117525 | 134234
10 | 29:49.60 | 3:09.10 | 134235 | 148419
11 | 32:58.70 | 3:40.20 | 148420 | 164939
12 | 36:39.15 | 3:29.63 | 164940 | 180677
13 | 40:09.03 | 3:48.70 | 180678 | 197847


Характеристики диапазона извлечения и сообщения об ошибках

Выбранный диапазон

Имя файла D:\РАЗДАЧА\Camila Cabello - Romance - 2019 [Japan]\Camila Cabello - Romance.wav

Пиковый уровень 100.0 %
Скорость извлечения 7.7 X
Качество диапазона 100.0 %
CRC теста FC8877A1
CRC копии FC8877A1
Копирование… OK

Ошибок не произошло


AccurateRip: сводка

Трек 1 : извлечено точно (доверие 10) [C62202BA] (AR v2)
Трек 2 : извлечено точно (доверие 10) [2C38C654] (AR v2)
Трек 3 : извлечено точно (доверие 10) [BCA980D8] (AR v2)
Трек 4 : извлечено точно (доверие 10) [C0FE6062] (AR v2)
Трек 5 : извлечено точно (доверие 10) [81E1CC8E] (AR v2)
Трек 6 : извлечено точно (доверие 10) [16C9D450] (AR v2)
Трек 7 : извлечено точно (доверие 10) [C60687C1] (AR v2)
Трек 8 : извлечено точно (доверие 10) [9CF0D13A] (AR v2)
Трек 9 : извлечено точно (доверие 10) [BEF32A8D] (AR v2)
Трек 10 : извлечено точно (доверие 10) [9B9AA99F] (AR v2)
Трек 11 : извлечено точно (доверие 10) [DEDD732B] (AR v2)
Трек 12 : извлечено точно (доверие 10) [722D7439] (AR v2)
Трек 13 : извлечено точно (доверие 10) [766B611C] (AR v2)

Все треки извлечены точно

Конец отчёта

–– CUETools DB Plugin V2.1.6

[CTDB TOCID: 7ENk6Yr6mPasIbAGuGfSiN5f7y4-] found
Submit result: 7ENk6Yr6mPasIbAGuGfSiN5f7y4- has been confirmed
Track | CTDB Status
1 | (138/139) Accurately ripped
2 | (139/139) Accurately ripped
3 | (139/139) Accurately ripped
4 | (139/139) Accurately ripped
5 | (139/139) Accurately ripped
6 | (139/139) Accurately ripped
7 | (139/139) Accurately ripped
8 | (139/139) Accurately ripped
9 | (139/139) Accurately ripped
10 | (138/139) Accurately ripped
11 | (139/139) Accurately ripped
12 | (138/139) Accurately ripped
13 | (139/139) Accurately ripped


==== Контрольная сумма отчёта FCA2F45D6710B462C3846AD22A417A5D8DB3181FF27829E8690B25BE610FEA64 ====

[CUETools log; Date: 06.04.2021 22:56:07; Version: 2.1.6]
[CTDB TOCID: 7ENk6Yr6mPasIbAGuGfSiN5f7y4-] found.
Track | CTDB Status
1 | (139/140) Accurately ripped
2 | (140/140) Accurately ripped
3 | (140/140) Accurately ripped
4 | (140/140) Accurately ripped
5 | (140/140) Accurately ripped
6 | (140/140) Accurately ripped
7 | (140/140) Accurately ripped
8 | (140/140) Accurately ripped
9 | (140/140) Accurately ripped
10 | (139/140) Accurately ripped
11 | (140/140) Accurately ripped
12 | (139/140) Accurately ripped
13 | (140/140) Accurately ripped
[AccurateRip ID: 0014d750-00d03eec-9e0a4d0d] found.
Track [ CRC | V2 ] Status
01 [d684b8cb|c62202ba] (00+10/10) Accurately ripped
02 [fa805e1e|2c38c654] (00+10/10) Accurately ripped
03 [b367d5c1|bca980d8] (00+10/10) Accurately ripped
04 [4d8c6830|c0fe6062] (00+10/10) Accurately ripped
05 [67df14c4|81e1cc8e] (00+10/10) Accurately ripped
06 [eccb85ac|16c9d450] (00+10/10) Accurately ripped
07 [694da64d|c60687c1] (00+10/10) Accurately ripped
08 [43b10fd2|9cf0d13a] (00+10/10) Accurately ripped
09 [608128e9|bef32a8d] (00+10/10) Accurately ripped
10 [7245883f|9b9aa99f] (00+10/10) Accurately ripped
11 [dcba408b|dedd732b] (00+10/10) Accurately ripped
12 [74cae1bf|722d7439] (00+10/10) Accurately ripped
13 [aa2cdce9|766b611c] (00+10/10) Accurately ripped

Track Peak [ CRC32 ] [W/O NULL] [ LOG ]
– 100,0 [FC8877A1] [6B04095E] CRC32
01 100,0 [15A66EF0] [E10F634D]
02 100,0 [D8733961] [AE8DC3D4]
03 100,0 [BC556638] [3284266D]
04 94,2 [9D3682CD] [410F0346]
05 100,0 [F8A84D10] [63A64474]
06 100,0 [2853384C] [B4AF429D]
07 98,8 [2B72BD71] [06284B78]
08 100,0 [34FAF333] [6FF723FB]
09 100,0 [4F39D35D] [01D12826]
10 100,0 [CCBCFBF8] [14C849A5]
11 94,4 [952D76B9] [1A44374E]
12 100,0 [F85F90BA] [464CBDDC]
13 98,8 [BC150D28] [303BB662]

All thanks go to pishin

>>> My Blog <<<

DOWNLOAD: