Subcategories

Lara Fabian - Camouflage (2017)

Posted By: SERTiL
Lara Fabian - Camouflage (2017)

Lara Fabian - Camouflage
EAC Rip | FLAC (tracks)+cue, log, m3u, artwork | 40:30 min | 254 MB
Label: 9 Productions ‎– 9029574110 | Tracks: 12 | Rls.date: 2017
Pop

The Canadian-Belgian artist Lara Fabian will release her highly-anticipated new studio album, 'Camouflage', on 6th October 2017. After more than 20 million albums sold worldwide, and following her latest platinum-certified French album in late 2015, she returns to the international scene with her 13th studio album, which was made in Stockholm, LA and Brussels and consists of twelve new songs, all in English, written and composed by Fabian together with Moh Denebi and Sharon Vaughn. The record unites Fabian's signature vocals with an electronic production combined with classic orchestration to create a sound that is both modern and timeless. 'Camouflage' is produced by Moh Denebi, who is one of the most prominent exponents of the modern and all-pervading Swedish pop sound, while Sharon Vaughn is an American songwriter who has previously worked with pop and country artists such as Willie Nelson, Dolly Parton, Agnes and Boyzone. 2017 sees her being inducted into the Nashville Songwriters Foundation's 'Hall of Fame' for her contribution to music.

Lara Fabian - Camouflage (2017)


TRACKLIST
01. Growing Wings 02:57
02. Chameleon 03:19
03. If I Let You Love Me 03:35
04. Choose What You Love Most (Let It Kill You) 03:53
05. We Are the Flyers 04:05
06. Painting in the Rain 03:27
07. Camouflage 03:11
08. I'm Breakable 02:35
09. Keep the Animals Away 03:32
10. We Are the Storm 03:39
11. Perfect 03:00
12. Communify 03:16

Exact Audio Copy V1.3 from 2. September 2016

EAC extraction logfile from 9. October 2017, 15:34

Lara Fabian / Camouflage

Used drive : hp DVD A DH16ACSH Adapter: 1 ID: 0

Read mode : Secure
Utilize accurate stream : Yes
Defeat audio cache : Yes
Make use of C2 pointers : No

Read offset correction : 6
Overread into Lead-In and Lead-Out : No
Fill up missing offset samples with silence : Yes
Delete leading and trailing silent blocks : No
Null samples used in CRC calculations : Yes
Used interface : Native Win32 interface for Win NT & 2000
Gap handling : Appended to previous track

Used output format : User Defined Encoder
Selected bitrate : 1024 kBit/s
Quality : High
Add ID3 tag : No
Command line compressor : C:\Program Files (x86)\Exact Audio Copy\Flac\flac.exe
Additional command line options : -8 -e -V -T "ARTIST=%artist%" -T "TITLE=%title%" -T "ALBUM=%albumtitle%" -T "DATE=%year%" -T "TRACKNUMBER=%tracknr%" -T "GENRE=%genre%" -T "PERFORMER=%albuminterpret%" -T "COMPOSER=%composer%" %haslyrics%–tag-from-file=LYRICS="%lyricsfile%"%haslyrics% -T "ALBUMARTIST=%albumartist%" -T "DISCNUMBER=%cdnumber%" -T "TOTALDISCS=%totalcds%" -T "TOTALTRACKS=%numtracks%" -T "COMMENT=%comment%" %source% -o %dest%


TOC of the extracted CD

Track | Start | Length | Start sector | End sector
––––––––––––––––––––––––––––-
1 | 0:00.00 | 2:58.14 | 0 | 13363
2 | 2:58.14 | 3:19.15 | 13364 | 28303
3 | 6:17.29 | 3:35.62 | 28304 | 44490
4 | 9:53.16 | 3:53.15 | 44491 | 61980
5 | 13:46.31 | 4:05.10 | 61981 | 80365
6 | 17:51.41 | 3:27.48 | 80366 | 95938
7 | 21:19.14 | 3:11.44 | 95939 | 110307
8 | 24:30.58 | 2:35.62 | 110308 | 121994
9 | 27:06.45 | 3:32.21 | 121995 | 137915
10 | 30:38.66 | 3:39.53 | 137916 | 154393
11 | 34:18.44 | 3:00.48 | 154394 | 167941
12 | 37:19.17 | 3:16.32 | 167942 | 182673


Track 1

Filename C:\EAC RIPS\Lara Fabian\2017 - Camouflage\FLAC\01 - Growing Wings.wav

Pre-gap length 0:00:02.00

Peak level 100.0 %
Extraction speed 4.4 X
Track quality 100.0 %
Test CRC C8BE6071
Copy CRC C8BE6071
Track not present in AccurateRip database
Copy OK

Track 2

Filename C:\EAC RIPS\Lara Fabian\2017 - Camouflage\FLAC\02 - Chameleon.wav

Peak level 100.0 %
Extraction speed 4.0 X
Track quality 99.9 %
Test CRC 7472B828
Copy CRC 7472B828
Track not present in AccurateRip database
Copy OK

Track 3

Filename C:\EAC RIPS\Lara Fabian\2017 - Camouflage\FLAC\03 - If I Let You Love Me.wav

Peak level 100.0 %
Extraction speed 5.3 X
Track quality 100.0 %
Test CRC 82742EE3
Copy CRC 82742EE3
Track not present in AccurateRip database
Copy OK

Track 4

Filename C:\EAC RIPS\Lara Fabian\2017 - Camouflage\FLAC\04 - Choose What You Love Most (Let It Kill You).wav

Peak level 100.0 %
Extraction speed 5.7 X
Track quality 100.0 %
Test CRC FCF677F4
Copy CRC FCF677F4
Track not present in AccurateRip database
Copy OK

Track 5

Filename C:\EAC RIPS\Lara Fabian\2017 - Camouflage\FLAC\05 - We Are the Flyers.wav

Peak level 99.7 %
Extraction speed 6.1 X
Track quality 100.0 %
Test CRC 031AAFE2
Copy CRC 031AAFE2
Track not present in AccurateRip database
Copy OK

Track 6

Filename C:\EAC RIPS\Lara Fabian\2017 - Camouflage\FLAC\06 - Painting in the Rain.wav

Peak level 100.0 %
Extraction speed 6.2 X
Track quality 100.0 %
Test CRC 82F8F3E9
Copy CRC 82F8F3E9
Track not present in AccurateRip database
Copy OK

Track 7

Filename C:\EAC RIPS\Lara Fabian\2017 - Camouflage\FLAC\07 - Camouflage.wav

Peak level 99.5 %
Extraction speed 5.1 X
Track quality 99.9 %
Test CRC 6BF341CC
Copy CRC 6BF341CC
Track not present in AccurateRip database
Copy OK

Track 8

Filename C:\EAC RIPS\Lara Fabian\2017 - Camouflage\FLAC\08 - I'm Breakable.wav

Peak level 100.0 %
Extraction speed 6.4 X
Track quality 100.0 %
Test CRC 08FE0215
Copy CRC 08FE0215
Track not present in AccurateRip database
Copy OK

Track 9

Filename C:\EAC RIPS\Lara Fabian\2017 - Camouflage\FLAC\09 - Keep the Animals Away.wav

Peak level 100.0 %
Extraction speed 7.0 X
Track quality 100.0 %
Test CRC B2B8578C
Copy CRC B2B8578C
Track not present in AccurateRip database
Copy OK

Track 10

Filename C:\EAC RIPS\Lara Fabian\2017 - Camouflage\FLAC\10 - We Are the Storm.wav

Peak level 100.0 %
Extraction speed 7.2 X
Track quality 100.0 %
Test CRC D2227A49
Copy CRC D2227A49
Track not present in AccurateRip database
Copy OK

Track 11

Filename C:\EAC RIPS\Lara Fabian\2017 - Camouflage\FLAC\11 - Perfect.wav

Peak level 100.0 %
Extraction speed 7.2 X
Track quality 100.0 %
Test CRC D440CBF7
Copy CRC D440CBF7
Track not present in AccurateRip database
Copy OK

Track 12

Filename C:\EAC RIPS\Lara Fabian\2017 - Camouflage\FLAC\12 - Communify.wav

Peak level 100.0 %
Extraction speed 7.5 X
Track quality 100.0 %
Test CRC C774F6FD
Copy CRC C774F6FD
Track not present in AccurateRip database
Copy OK


None of the tracks are present in the AccurateRip database

No errors occurred

End of status report

–– AcoustID Plugin V1.2.0

Total fingerprints: 12


–– CUETools DB Plugin V2.1.6

[CTDB TOCID: NMx5CxktXgHQVUuzawfEkr11G0k-] disk not present in database
Submit result: NMx5CxktXgHQVUuzawfEkr11G0k- has been uploaded


==== Log checksum 9E8F1B24D29EB4CF5774C63E07225EA14CFCC58C85343B910B8D7E0E8F840120 ====


Lara Fabian - Camouflage (2017)


Thanks to the Original customer.