Subcategories

Candi Staton - Chance (1979) [2009, Remastered Reissue]

Posted By: BlondStyle
Candi Staton - Chance (1979) [2009, Remastered Reissue]

Candi Staton - Chance (1979) [2009, Remastered Reissue]
R&B, Soul/Funk, Quiet Storm, Disco | EAC Rip | FLAC, Tracks+CUE+LOG+Scans (JPEG) | 34:30 | 258,70 Mb
Label: Warner Bros. Records/Wounded Bird Records (USA) | Cat.# WOU 3333 | Released: 2009-04-18 (1979)

"Chance" is the 8th album by American soul and gospel singer Candi Staton. Singles released from the album included "When You Wake Up Tomorrow" (co-written by Patrick Adams and Wayne K. Garfield), and the title track, which became a Top 20 R&B record. The album peaked at #23 on the US R&B Album chart and #129 on the Billboard 200.
~Wikipedia

Candi Staton - Chance (1979) [2009, Remastered Reissue]

Heavy grooves from the club years of Candi Staton – material that's quite different than the rootsier soul of her start, but work that's equally great in its own sort of way! The tunes here are mostly upbeat and clubby – with arrangements handled by Patrick Adams, Leon Pendarvis, Ron Miller, Kenny Morris, and others – all much more east coast and uptempo than the southern-styled sound of Staton's previous records. Yet Candi still sounds great throughout – and her well-trained vocals really hold strong throughout the set, following nicely on the previous strengths of the "Young Hearts" hit. Most tracks are long, and titles include "I Ain't Got Nowhere To Go", "When You Wake Up Tomorrow", "Rock", "Chance", and "Me & My Music".
Candi Staton - Chance (1979) [2009, Remastered Reissue]

Candi Staton - Chance (1979) [2009, Remastered Reissue]




Release of this album: 1979 [LP Warner Bros. Records, Cat.# BSK 3333, USA]
Release of this CD: 2009, April, 18 [CD Warner Bros. Records/Wounded Bird Records (USA), Cat.# WOU 3333, UPC: 664140333321]
℗ 1979 & 2009 Warner Bros. Records Inc.
Produced under license from Warner Bros. Records Inc.
Manufactured by Rhino Entertainment Company.
© 2009 Wounded Bird Records.
Printed/Made in U.S.A.

Credits:

Art Direction – Peter Whorf
Backing Vocals – Carole Sylvan, Alfonso Thornton, Michelle Cobbs
Engineer [Recording & Mixing] – Andy Abrams
Engineer [Recording] – Carla Bandini, Craig Michaels, John Potoker, Matthew Weiner
Horns – Barry Rogers, George Opalisky, Jr., Gerald Chamberlain, Harold Vick, Howard Johnson, Michael Brecker, Mike Lawrence, Randy Brecker, Sam Burtis, Virgil Jones
Management [Corporate Affairs, Ltd.] – George Schiffer
Management [Global Entertainment Industries] – Ed Wright
Mastered By – Stewart Romaine
Mixed By – Jimmy Simpson
Photography By – Mario Casilli
Producer – Candi Staton, Jimmy Simpson


Tracklist:

01. I Ain't Got Nowhere To Go (03:50)
02. When You Wake Up Tomorrow (06:45)
03. Rock (07:18)
04. Chance (05:34)
05. I Live (05:13)
06. Me And My Music (05:51)

Exact Audio Copy V1.0 beta 3 from 29. August 2011

EAC extraction logfile from 15. April 2012, 13:04

Candi Staton / Chance

Used drive : TSSTcorpCDDVDW TS-L632N Adapter: 1 ID: 0

Read mode : Secure
Utilize accurate stream : Yes
Defeat audio cache : Yes
Make use of C2 pointers : No

Read offset correction : 6
Overread into Lead-In and Lead-Out : No
Fill up missing offset samples with silence : Yes
Delete leading and trailing silent blocks : No
Null samples used in CRC calculations : Yes
Used interface : Native Win32 interface for Win NT & 2000
Gap handling : Appended to previous track

Used output format : User Defined Encoder
Selected bitrate : 128 kBit/s
Quality : High
Add ID3 tag : No
Command line compressor : C:\Program Files (x86)\Exact Audio Copy\Flac\flac.exe
Additional command line options : -8 -V -T "ARTIST=%artist%" -T "TITLE=%title%" -T "ALBUM=%albumtitle%" -T "DATE=%year%" -T "TRACKNUMBER=%tracknr%" -T "TOTALTRACKS=%numtracks%" -T "GENRE=%genre%" -T "ALBUMARTIST=%albumartist%" -T "ALBUM ARTIST=%albumartist%" -T "COMMENT=EAC Secure Mode, Test & Copy, AccurateRip, FLAC -8" %source%


TOC of the extracted CD

Track | Start | Length | Start sector | End sector
––––––––––––––––––––––––––––-
1 | 0:00.00 | 3:49.63 | 0 | 17237
2 | 3:49.63 | 6:44.49 | 17238 | 47586
3 | 10:34.37 | 7:18.08 | 47587 | 80444
4 | 17:52.45 | 5:34.16 | 80445 | 105510
5 | 23:26.61 | 5:12.63 | 105511 | 128973
6 | 28:39.49 | 5:50.52 | 128974 | 155275


Track 1

Filename C:\Users\HP\Music\01 - I Ain't Got Nowhere to Go.wav

Pre-gap length 0:00:02.00

Peak level 97.2 %
Extraction speed 2.3 X
Track quality 100.0 %
Test CRC E37ACE10
Copy CRC E37ACE10
Track not present in AccurateRip database
Copy OK

Track 2

Filename C:\Users\HP\Music\02 - When You Wake Up Tomorrow.wav

Peak level 97.2 %
Extraction speed 2.8 X
Track quality 100.0 %
Test CRC B0BBF7CC
Copy CRC B0BBF7CC
Track not present in AccurateRip database
Copy OK

Track 3

Filename C:\Users\HP\Music\03 - Rock.wav

Peak level 97.2 %
Extraction speed 3.2 X
Track quality 100.0 %
Test CRC E6B52B9B
Copy CRC E6B52B9B
Track not present in AccurateRip database
Copy OK

Track 4

Filename C:\Users\HP\Music\04 - Chance.wav

Peak level 97.2 %
Extraction speed 3.4 X
Track quality 100.0 %
Test CRC 59474B58
Copy CRC 59474B58
Track not present in AccurateRip database
Copy OK

Track 5

Filename C:\Users\HP\Music\05 - I Live.wav

Peak level 97.2 %
Extraction speed 3.6 X
Track quality 100.0 %
Test CRC A9AEDBD4
Copy CRC A9AEDBD4
Track not present in AccurateRip database
Copy OK

Track 6

Filename C:\Users\HP\Music\06 - Me and My Music.wav

Peak level 97.2 %
Extraction speed 3.8 X
Track quality 100.0 %
Test CRC 6231AC71
Copy CRC 6231AC71
Track not present in AccurateRip database
Copy OK


None of the tracks are present in the AccurateRip database

No errors occurred

End of status report

==== Log checksum 2FECB273F9C31DB87EB45AFB9B705C3ADF4C5D171F94134F8011BD7701EC87A1 ====

––––––––––––––––––––––––––––––––––––––––
Analyzed: Candi Staton / Chance
––––––––––––––––––––––––––––––––––––––––

DR Peak RMS Duration Track
––––––––––––––––––––––––––––––––––––––––
DR12 -0.24 dB -14.10 dB 3:50 01-I Ain't Got Nowhere to Go
DR11 -0.24 dB -13.29 dB 6:45 02-When You Wake Up Tomorrow
DR12 -0.24 dB -14.11 dB 7:18 03-Rock
DR13 -0.24 dB -14.87 dB 5:34 04-Chance
DR12 -0.24 dB -14.69 dB 5:13 05-I Live
DR12 -0.24 dB -13.61 dB 5:51 06-Me and My Music
––––––––––––––––––––––––––––––––––––––––

Number of tracks: 6
Official DR value: DR12

Samplerate: 44100 Hz
Channels: 2
Bits per sample: 16
Bitrate: 874 kbps
Codec: FLAC
================================================================================

Thanks to original releaser

♫~Welcome To My Blog~♫

password: BlondStyle