Subcategories

Candice Night - Starlight Starbright (2015)

Posted By: popsakov
Candice Night - Starlight Starbright (2015)

Candice Night - Starlight Starbright (2015)
EAC Rip | FLAC (Img) + Cue + Log ~ 271 Mb | MP3 CBR320 ~ 127 Mb | Scans Included (JPG, 300 dpi)
Bonus Video: mp4, MPEG-4 AVC (H264) 1920x1080/1280x720 (16:9), 25.0 fps, 6000/5000 Kbps
AAC (mp4a) 2.0, 44.1 KHz, 256 Kbps | ~ 287 Mb| RAR 5% Recovery
Pop | Minstrel Hall Music #MHM0207

Candice Night: her name is equivalent to soothing vocals, ethereal motion, and celestial angelic beauty. As hypnotic as the ocean, as timeless as the night sky, she captivates and mesmerizes with the mere sound of her magic voice. With her 2nd solo offering, Starlight, Starbright, Night's vocal quality is richer than in years past, bringing you to a quiet and intimate place with the singer; a place of beauty and dreams. Inspired by the birth of her children, Autumn (5) and Rory (3), she began creating this CD when she was pregnant with her first child. 'I really felt just so completely full of love and part of this bigger picture, this miracle,' Night remembers. 'I wanted to sing to celebrate this incredible life that was occurring inside of me. I've never felt so spiritual.' When her children were born she sang to them each night to lull them to sleep and each morning so they would awaken with the wonderful sound of song. When she spoke to other moms who wished they could sing to their own children but didn't have the confidence in their own voices to do so, Candice decided to create this CD. Not only for her own children but for the moms who wished they had soothing songs to ease their child's journey into dreamland after the sun sets. So many parents enjoyed the songs so much, Candice was reticent in calling this a lullaby CD though that's what she originally intended it to be. Now created for children and adults to relax to she terms it 'music to dream by.' Many know her as the front woman of Blackmores Night where for the past 18 years she has been dancing across the stages of the world in historical venues with her 8 piece band performing the songs she has co-written with her writing partner and husband, legendary guitarist Ritchie Blackmore. The critically acclaimed band Blackmores Night has been known for the past two decades for taking melodies of centuries gone by and updating them with new instrumentation, new arrangements and Candice's lyrics which have always been inspired by the simple pleasures in life. 'I am constantly inspired by nature and the miracles that present themselves to us each day, but that many are too busy to see and enjoy. The colours of a sunset, the star-filled sky, the wind through your hair. All of these things are so simple and free but can fill us with such wonder it's like seeing them through the eyes of a child.' Night also pulls from regional fairy tales, myths and legends. 'We were all brought up with our parents reading us these stories before we go to bed at night and enter our own dreamland. So those faerie tales are weaved into our memories. Nostalgic for me, and bring us back to a time where you felt safe, secure and loved.' On Starlight, Starbright you will find new original melodies, some co-written and played with Ritchie Blackmore, some solo by Night; as well as a song originally written by her daughter Autumn when she was 1½. 'I walked in one day and she was singing this beautiful song to her dolls as she lay them down to sleep. I recorded it on video without her knowing it and the song has always stayed with me since that first moment I heard it. It's called Lullaby In The Night . It was the first video I shot for the project as well.' Once In A Garden is another song that a video was filmed for from this CD. Starring Candice's children as well as a wonderful group of other children playing pretend as children do, it's a beautiful song about their innocence that the video encapsulates perfectly. Other songs from the CD include old and new favorites, all rerecorded with the Candice Night magic put to them. As the executive producer of this CD and the woodwind player as well as vocalist and lyricist, each sound recorded was done so under her careful direction to ensure the sound was the beautiful sound of what she felt lullabies should be.
~ Amazon

***************

Candice Night - Starlight Starbright (2015)

Candice Night - Starlight Starbright (2015)

Track List:

01. Rock A Bye Baby [03:12]
02. Robin Readbreast [04:11]
03. So This Is Love [02:58]
04. Sleep Little Baby [03:37]
05. In My Arms [03:12]
06. Annie's Song [02:27]
07. Down In The Meadow [02:29]
08. Lullaby In The Night [03:20]
09. Fireflies [03:59]
10. Return To Pooh Corner [03:44]
11. Once In A Garden [03:22]
12. Baby Mine [03:50]
13. Misty Blue [02:22]

Exact Audio Copy V1.1 from 23. June 2015

EAC extraction logfile from 2. December 2015, 18:15

Candice Night / Starlight Starbright

Used drive : PIONEER BD-RW BDR-209D Adapter: 0 ID: 5

Read mode : Secure
Utilize accurate stream : Yes
Defeat audio cache : Yes
Make use of C2 pointers : No

Read offset correction : 667
Overread into Lead-In and Lead-Out : No
Fill up missing offset samples with silence : Yes
Delete leading and trailing silent blocks : No
Null samples used in CRC calculations : Yes
Used interface : Installed external ASPI interface

Used output format : User Defined Encoder
Selected bitrate : 768 kBit/s
Quality : High
Add ID3 tag : No
Command line compressor : C:\Program Files (x86)\Exact Audio Copy\FLAC\FLAC.EXE
Additional command line options : -6 -V -T "ARTIST=%artist%" -T "TITLE=%title%" -T "ALBUM=%albumtitle%" -T "DATE=%year%" -T "TRACKNUMBER=%tracknr%" -T "GENRE=%genre%" -T "COMMENT=%comment%" -T "BAND=%albuminterpret%" -T "ALBUMARTIST=%albuminterpret%" -T "COMPOSER=%composer%" %haslyrics%–tag-from-file=LYRICS="%lyricsfile%"%haslyrics% -T "DISCNUMBER=%cdnumber%" -T "TOTALDISCS=%totalcds%" -T "TOTALTRACKS=%numtracks%" %hascover%–picture="%coverfile%"%hascover% %source% -o %dest%


TOC of the extracted CD

Track | Start | Length | Start sector | End sector
––––––––––––––––––––––––––––-
1 | 0:00.00 | 3:11.67 | 0 | 14391
2 | 3:11.67 | 4:10.18 | 14392 | 33159
3 | 7:22.10 | 2:57.71 | 33160 | 46505
4 | 10:20.06 | 3:36.32 | 46506 | 62737
5 | 13:56.38 | 3:11.34 | 62738 | 77096
6 | 17:07.72 | 2:26.52 | 77097 | 88098
7 | 19:34.49 | 2:28.41 | 88099 | 99239
8 | 22:03.15 | 3:19.17 | 99240 | 114181
9 | 25:22.32 | 3:58.41 | 114182 | 132072
10 | 29:20.73 | 3:43.07 | 132073 | 148804
11 | 33:04.05 | 3:21.22 | 148805 | 163901
12 | 36:25.27 | 3:49.38 | 163902 | 181114
13 | 40:14.65 | 2:21.35 | 181115 | 191724


Range status and errors

Selected range

Filename E:\MUSIC\Candice Night - Starlight Starbright.wav

Peak level 98.8 %
Extraction speed 7.5 X
Range quality 100.0 %
Test CRC 85F416A5
Copy CRC 85F416A5
Copy OK

No errors occurred


AccurateRip summary

Track 1 not present in database
Track 2 not present in database
Track 3 not present in database
Track 4 not present in database
Track 5 not present in database
Track 6 not present in database
Track 7 not present in database
Track 8 not present in database
Track 9 not present in database
Track 10 not present in database
Track 11 not present in database
Track 12 not present in database
Track 13 not present in database

None of the tracks are present in the AccurateRip database

End of status report

==== Log checksum F1FAFB4E7DFD2D170E6373F305215B7176CCE8AF44ECAB6AF3418066B1ADB566 ====

foobar2000 1.2.6 / Dynamic Range Meter 1.1.1
log date: 2015-12-04 00:15:01

––––––––––––––––––––––––––––––––––––––––
Analyzed: Candice Night / Starlight Starbright
––––––––––––––––––––––––––––––––––––––––

DR Peak RMS Duration Track
––––––––––––––––––––––––––––––––––––––––
DR10 -1.42 dB -13.25 dB 3:12 01-Rock A Bye Baby
DR11 -0.10 dB -13.58 dB 4:10 02-Robin Readbreast
DR8 -1.26 dB -11.47 dB 2:58 03-So This Is Love
DR9 -0.18 dB -12.96 dB 3:36 04-Sleep Little Baby
DR9 -0.94 dB -12.07 dB 3:11 05-In My Arms
DR10 -0.10 dB -12.27 dB 2:27 06-Annie's Song
DR10 -0.62 dB -13.05 dB 2:29 07-Down In The Meadow
DR10 -0.95 dB -12.68 dB 3:19 08-Lullaby In The Night
DR10 -0.88 dB -13.29 dB 3:59 09-Fireflies
DR10 -0.80 dB -11.98 dB 3:43 10-Return To Pooh Corner
DR10 -0.95 dB -13.74 dB 3:21 11-Once In A Garden
DR10 -1.23 dB -13.57 dB 3:50 12-Baby Mine
DR8 -0.58 dB -12.59 dB 2:21 13-Misty Blue
––––––––––––––––––––––––––––––––––––––––

Number of tracks: 13
Official DR value: DR9

Samplerate: 44100 Hz
Channels: 2
Bits per sample: 16
Bitrate: 771 kbps
Codec: FLAC
================================================================================

[CUETools log; Date: 04.12.2015 0:14:55; Version: 2.1.5]
[CTDB TOCID: 5dpdj1Zf.7h0dNaPhrD5bqNu9Xk-] found.
Track | CTDB Status
1 | (4/4) Accurately ripped
2 | (4/4) Accurately ripped
3 | (4/4) Accurately ripped
4 | (4/4) Accurately ripped
5 | (4/4) Accurately ripped
6 | (4/4) Accurately ripped
7 | (4/4) Accurately ripped
8 | (4/4) Accurately ripped
9 | (4/4) Accurately ripped
10 | (4/4) Accurately ripped
11 | (4/4) Accurately ripped
12 | (4/4) Accurately ripped
13 | (4/4) Accurately ripped
[AccurateRip ID: 0014a54a-00cdde9a-b109fc0d] disk not present in database.

Track Peak [ CRC32 ] [W/O NULL] [ LOG ]
– 98,8 [85F416A5] [E3AFA240] CRC32
01 84,9 [F928869C] [6D980FC1]
02 98,8 [9A30075A] [FBB22A31]
03 86,4 [6E42E45E] [3E5B2750]
04 97,9 [CF34AA7C] [FDC77C83]
05 89,7 [598E131F] [CCDDFBAC]
06 98,8 [1BAD6219] [ED19EC58]
07 93,1 [15C0B9FD] [4A367256]
08 89,6 [CB10BB1C] [D91C34F1]
09 90,4 [79D54980] [C479F115]
10 91,1 [15DB3C95] [E60CF196]
11 89,6 [07F32CB1] [7E702306]
12 86,8 [2D6F46ED] [AE5A385E]
13 93,5 [A740AB23] [B38102A0]


Bonus Video:

01. Once In A Garden [03:14]
02. Lullaby In The Night [03:18]

General
Complete name : K:\_002\Candice Night - Starlight Starbright (2015) (MHM0207)\Video\Video 1 - Candice Night-Once In A Garden.mp4
Format : MPEG-4
Format profile : Base Media / Version 2
Codec ID : mp42
File size : 145 MiB
Duration : 3mn 14s
Overall bit rate : 6 267 Kbps
Encoded date : UTC 2014-12-11 08:35:45
Tagged date : UTC 2014-12-12 08:43:08
Writing application : Sorenson Squeeze
Comment : Encoded by

Video
ID : 2
Format : AVC
Format/Info : Advanced Video Codec
Format profile : High@L4.0
Format settings, CABAC : Yes
Format settings, ReFrames : 4 frames
Codec ID : avc1
Codec ID/Info : Advanced Video Coding
Duration : 3mn 14s
Bit rate : 6 000 Kbps
Width : 1 920 pixels
Height : 1 080 pixels
Display aspect ratio : 16:9
Frame rate mode : Constant
Frame rate : 25.000 fps
Color space : YUV
Chroma subsampling : 4:2:0
Bit depth : 8 bits
Scan type : Progressive
Bits/(Pixel*Frame) : 0.116
Stream size : 139 MiB (96%)
Writing library : x264 core 115
Encoding settings : cabac=1 / ref=3 / deblock=1:0:0 / analyse=0x3:0x113 / me=hex / subme=7 / psy=1 / psy_rd=1.00:0.00 / mixed_ref=1 / me_range=16 / chroma_me=1 / trellis=1 / 8x8dct=1 / cqm=0 / deadzone=21,11 / fast_pskip=1 / chroma_qp_offset=-2 / threads=18 / sliced_threads=0 / nr=0 / decimate=1 / interlaced=0 / bluray_compat=0 / constrained_intra=0 / bframes=3 / b_pyramid=2 / b_adapt=1 / b_bias=0 / direct=1 / weightb=1 / open_gop=0 / weightp=2 / keyint=300 / keyint_min=25 / scenecut=50 / intra_refresh=0 / rc_lookahead=40 / rc=2pass / mbtree=1 / bitrate=6000 / ratetol=60.0 / qcomp=0.60 / qpmin=0 / qpmax=69 / qpstep=4 / cplxblur=20.0 / qblur=0.5 / ip_ratio=1.40 / aq=1:1.00
Encoded date : UTC 2014-12-11 08:35:45
Tagged date : UTC 2014-12-11 08:35:45

Audio
ID : 1
Format : AAC
Format/Info : Advanced Audio Codec
Format profile : LC
Codec ID : 40
Duration : 3mn 14s
Bit rate mode : Constant
Bit rate : 256 Kbps
Channel(s) : 2 channels
Channel positions : Front: L R
Sampling rate : 44.1 KHz
Compression mode : Lossy
Stream size : 5.94 MiB (4%)
Encoded date : UTC 2014-12-11 08:35:45
Tagged date : UTC 2014-12-11 08:35:45

Other #1
ID : 3
Type : Scene description
Format : System Core
Codec ID : 2
Duration : 3mn 14s
Encoded date : UTC 2014-12-11 08:43:08
Tagged date : UTC 2014-12-11 08:43:08

Other #2
ID : 4
Type : Object description
Format : System
Codec ID : 1
Duration : 3mn 14s
Encoded date : UTC 2014-12-11 08:43:08
Tagged date : UTC 2014-12-11 08:43:08

General
Complete name : K:\_002\Candice Night - Starlight Starbright (2015) (MHM0207)\Video\Video 2 - Candice Night-Lullaby In The Night.mp4
Format : MPEG-4
Format profile : Base Media / Version 2
Codec ID : mp42
File size : 128 MiB
Duration : 3mn 18s
Overall bit rate : 5 419 Kbps
Encoded date : UTC 2015-09-21 09:15:39
Tagged date : UTC 2015-09-22 09:23:54
Writing application : Sorenson Squeeze
Comment : Encoded by oliver sommer

Video
ID : 2
Format : AVC
Format/Info : Advanced Video Codec
Format profile : High@L3.1
Format settings, CABAC : Yes
Format settings, ReFrames : 4 frames
Codec ID : avc1
Codec ID/Info : Advanced Video Coding
Duration : 3mn 18s
Bit rate : 5 000 Kbps
Width : 1 280 pixels
Height : 720 pixels
Display aspect ratio : 16:9
Frame rate mode : Constant
Frame rate : 25.000 fps
Color space : YUV
Chroma subsampling : 4:2:0
Bit depth : 8 bits
Scan type : Progressive
Bits/(Pixel*Frame) : 0.217
Stream size : 122 MiB (95%)
Writing library : x264 core 115
Encoding settings : cabac=1 / ref=3 / deblock=1:0:0 / analyse=0x3:0x113 / me=hex / subme=7 / psy=1 / psy_rd=1.00:0.00 / mixed_ref=1 / me_range=16 / chroma_me=1 / trellis=1 / 8x8dct=1 / cqm=0 / deadzone=21,11 / fast_pskip=1 / chroma_qp_offset=-2 / threads=12 / sliced_threads=0 / nr=0 / decimate=1 / interlaced=0 / bluray_compat=0 / constrained_intra=0 / bframes=3 / b_pyramid=2 / b_adapt=1 / b_bias=0 / direct=1 / weightb=1 / open_gop=0 / weightp=2 / keyint=300 / keyint_min=25 / scenecut=50 / intra_refresh=0 / rc_lookahead=40 / rc=2pass / mbtree=1 / bitrate=5000 / ratetol=60.0 / qcomp=0.60 / qpmin=0 / qpmax=69 / qpstep=4 / cplxblur=20.0 / qblur=0.5 / ip_ratio=1.40 / aq=1:1.00
Encoded date : UTC 2015-09-21 09:15:39
Tagged date : UTC 2015-09-21 09:15:39

Audio
ID : 1
Format : AAC
Format/Info : Advanced Audio Codec
Format profile : LC
Codec ID : 40
Duration : 3mn 18s
Bit rate mode : Constant
Bit rate : 256 Kbps
Channel(s) : 2 channels
Channel positions : Front: L R
Sampling rate : 44.1 KHz
Compression mode : Lossy
Stream size : 6.06 MiB (5%)
Encoded date : UTC 2015-09-21 09:15:39
Tagged date : UTC 2015-09-21 09:15:39

Other #1
ID : 3
Type : Scene description
Format : System Core
Codec ID : 2
Duration : 3mn 18s
Encoded date : UTC 2015-09-21 09:23:54
Tagged date : UTC 2015-09-21 09:23:54

Other #2
ID : 4
Type : Object description
Format : System
Codec ID : 1
Duration : 3mn 18s
Encoded date : UTC 2015-09-21 09:23:54
Tagged date : UTC 2015-09-21 09:23:54

Candice Night - Starlight Starbright (2015)

Candice Night - Starlight Starbright (2015)

Candice Night - Starlight Starbright (2015)

All thanks go to HaRD

Visit my blog!

No mirrors, please!

Download:
Nitroflare: FLAC | Video | mp3