Subcategories

Canned Heat - '70 Concert: Live In Europe (1970) {Reissue}

Posted By: popsakov
Canned Heat - '70 Concert: Live In Europe (1970) {Reissue}

Canned Heat - '70 Concert: Live In Europe (1970) {Reissue}
EAC Rip | FLAC (Img) + Cue + Log ~ 258 Mb | MP3 CBR320 ~ 121 Mb
Covers Included | RAR 5% Recovery
Blues Rock, Boogie Rock, Modern Electric Blues | BGO Records #BGOCD12

This platter captures the 1970 incarnation of Canned Heat with Bob "The Bear" Hite (vocals), Alan "Blind Owl" Wilson (guitar/vocals/harmonica), Larry "The Mole" Taylor (bass), Aldolfo "Fito" de la Parra (drums), and newest addition Harvey Mandel (guitar), who had replaced Henry "Sunflower" Vestine (guitar) in 1969. They headed across the Atlantic in the spring of 1970 on the heels of "Let's Work Together" – a Wilbert Harrison cover that charted within the Top Five in Europe. That outing yielded the combo's first concert disc, Live in Europe (1971) – which had been issued almost a year earlier in the U.K. as Canned Heat Concert (Recorded Live in Europe) (1970). These are also among the final recordings to feature Wilson, whose increasing substance abuse and depression would result in an overdose prior to having re-joined the band for another stint in Europe in the fall of the same year. Indeed the brooding "Pulling Hair Blues" from this effort is marked not only by some decidedly dark and strung-out contributions, but more subtly, Hite's tentative introduction of Wilson – indicating he had not been playing for the duration of the set. The Heat's performance style has shifted from the aggressive rhythm and blues of their earliest sides to a looser and more improvisational technique. The opener, Arthur "Big Boy" Crudup's "That's All Right Mama," is given a greasy mid-tempo groove over Hite's vocals . Mandel shines as his guitar leads dart in and out of the languid boogie. Although presented as a medley, "Back on the Road" is more or less an inclusive number with only brief lyrical references to "On the Road Again." Mandel's sinuous fretwork melds flawlessly with Wilson's harmonica blows. The powerful rendering of the aforementioned "Let's Work Together" is a highlight, with Canned Heat in top form as Wilson's electric slide riffs recall their seminal sound.

~ Lindsay Planer, All Music

***************

Track List:

01. That's All Right Mama [9:03]
02. Bring It On Home [6:18]
03. Pulling Hair Blues [9:21]
04. Medley: Back Out On The Road & On The Road Again [6:01]
05. London Blues [7:54]
06. Let's Work Together [4:51]
07. Goodbye For Now [3:25]

Personnel:
Bass - Larry "The Mole" Taylor
Drums - Adolfo "Fito" De La Parra
Guitar - Harvey Mandel
Guitar, Vocals, Harp - Alan "Blind Owl" Wilson
Producer - Skip Taylor
Vocals - Bob "The Bear" Hite

Exact Audio Copy V0.99 prebeta 4 from 23. January 2008

EAC extraction logfile from 7. October 2008, 9:15

Canned Heat / '70 Concert - Live In Europe

Used drive : _NEC DVD_RW ND-3550A Adapter: 5 ID: 0

Read mode : Secure
Utilize accurate stream : Yes
Defeat audio cache : Yes
Make use of C2 pointers : No

Read offset correction : 48
Overread into Lead-In and Lead-Out : No
Fill up missing offset samples with silence : Yes
Delete leading and trailing silent blocks : No
Null samples used in CRC calculations : Yes
Used interface : Native Win32 interface for Win NT & 2000

Used output format : Monkey's Audio Lossless Encoder
Selected bitrate : High Lossless Compression
Quality : High
Add ID3 tag : Yes
Command line compressor : C:\Program Files\Monkey's Audio\MAC.exe
Additional command line options : %l–alt-preset 128%l%h–alt-preset standard%h %s %d


TOC of the extracted CD

Track | Start | Length | Start sector | End sector
––––––––––––––––––––––––––––-
1 | 0:00.32 | 9:02.70 | 32 | 40751
2 | 9:03.27 | 6:17.60 | 40752 | 69086
3 | 15:21.12 | 9:20.73 | 69087 | 111159
4 | 24:42.10 | 6:00.47 | 111160 | 138206
5 | 30:42.57 | 7:53.65 | 138207 | 173746
6 | 38:36.47 | 4:50.63 | 173747 | 195559
7 | 43:27.35 | 3:25.32 | 195560 | 210966


Range status and errors

Selected range

Filename D:\Downloads\Canned Heat - '70 Concert - Live In Europe\Canned Heat - '70 Concert - Live In Europe.wav

Peak level 91.8 %
Range quality 99.9 %
Test CRC A40192D2
Copy CRC A40192D2
Copy OK

No errors occurred


AccurateRip summary

Track 1 not present in database
Track 2 not present in database
Track 3 not present in database
Track 4 not present in database
Track 5 not present in database
Track 6 not present in database
Track 7 not present in database

None of the tracks are present in the AccurateRip database

End of status report

[CUETools log; Date: 13.05.2019 13:51:46; Version: 2.1.6]
Pregap length 00:00:32.
[CTDB TOCID: KoekKHaIZvDcjFdnMjP3jlD6hoA-] found.
Track | CTDB Status
1 | (14/14) Accurately ripped
2 | (14/14) Accurately ripped
3 | (14/14) Accurately ripped
4 | (14/14) Accurately ripped
5 | (14/14) Accurately ripped
6 | (14/14) Accurately ripped
7 | (14/14) Accurately ripped
[AccurateRip ID: 000e55f8-0054489a-5f0afc07] found.
Track [ CRC | V2 ] Status
01 [c8afc807|cd351ad8] (03+00/14) Accurately ripped
02 [5608d908|a41bd3e2] (03+00/15) Accurately ripped
03 [71669c5a|6f4e744e] (03+00/15) Accurately ripped
04 [b57280ba|53495e22] (03+00/15) Accurately ripped
05 [6a2cac3f|f265c3f8] (03+00/15) Accurately ripped
06 [bfbcdd8e|87881ed7] (03+00/15) Accurately ripped
07 [de7ce17f|76c8e7cd] (03+00/15) Accurately ripped
Offsetted by -30:
01 [d875957e] (00/14) No match (V2 was not tested)
02 [acf5aafb] (00/15) No match (V2 was not tested)
03 [9e705d36] (00/15) No match (V2 was not tested)
04 [5850871a] (00/15) No match (V2 was not tested)
05 [c8c2fdcd] (00/15) No match (V2 was not tested)
06 [07070789] (00/15) No match (V2 was not tested)
07 [815ce3a4] (00/15) No match (V2 was not tested)
Offsetted by 559:
01 [93c476e9] (00/14) No match (V2 was not tested)
02 [2b03a6d3] (00/15) No match (V2 was not tested)
03 [f3b2b66a] (00/15) No match (V2 was not tested)
04 [b9884902] (00/15) No match (V2 was not tested)
05 [d923e156] (00/15) No match (V2 was not tested)
06 [0894fb26] (00/15) No match (V2 was not tested)
07 [e78cc855] (00/15) No match (V2 was not tested)
Offsetted by 1319:
01 [eacad2b8] (00/14) No match (V2 was not tested)
02 [82bdf892] (00/15) No match (V2 was not tested)
03 [56d7f707] (00/15) No match (V2 was not tested)
04 [6f5cebbc] (00/15) No match (V2 was not tested)
05 [4e11386a] (00/15) No match (V2 was not tested)
06 [88499626] (00/15) No match (V2 was not tested)
07 [21f675a8] (00/15) No match (V2 was not tested)

Track Peak [ CRC32 ] [W/O NULL] [ LOG ]
– 91,8 [A40192D2] [F47990A1] CRC32
01 54,0 [5A9452C6] [2753FD9C]
02 56,8 [4AD087D0] [B0015514]
03 54,0 [C0AA66DA] [BE832C17]
04 79,0 [3C0D6323] [DBF6454A]
05 85,3 [2EBD9FE7] [1CB12F22]
06 91,8 [AEBD418E] [ED303807]
07 78,6 [D1805551] [3538A4E9]

Canned Heat - '70 Concert: Live In Europe (1970) {Reissue}

Canned Heat - '70 Concert: Live In Europe (1970) {Reissue}

All thanks go to the original ripper(s) …

>>> "Canned Heat" in my Blog <<<

Download from icerbox.com: