Subcategories

Canned Heat - Canned Heat Blues Band (1997) {2000, Reissue}

Posted By: popsakov
Canned Heat - Canned Heat Blues Band (1997) {2000, Reissue}

Canned Heat - Canned Heat Blues Band (1997) {2000, Reissue}
EAC Rip | FLAC (Img) + Cue + Log ~ 322 Mb | MP3 CBR320 ~ 122 Mb
Full Scans (JPG, 600 dpi) ~ 58 Mb | RAR 5% Recovery
Modern Electric Blues, Boogie Rock, Blues Rock | Seagull Music #111110-207

Canned Heat founder and guitar great Bob Hite once described his band as "a rock band with country/blues roots" and perhaps a little less modestly, "the first and greatest boogie band ever." Canned Heat's "greatness" has always seemed to elude them by a hair, however, regardless of their versatility and devotion to the strange and wonderful mutations their music endured, particularly in the '60s. But these dudes do nothing if not persevere. Having lost their signature falsetto and lowdown harp man Alan Wilson in 1970, 1996's Canned Heat Blues Band fronts "The Bear's" third vocal replacement, Robert Lucas, who wisely doesn't pretend he can cover those cool old road-trip-on-acid songs (like "Going Up the Country") in a particularly familiar manner. Instead he stylizes "Quiet Woman," "Iron Horse," and "One Kind Favor" in a murky, bottom-dwelling register. To his credit, he works hard blowing that harp Heat-style, although he cannot reach the flutter and intensity of many other drop-in Heat men. A sad note: this is the last contribution we get from the ever-cool Henry "Guitar Gangster" Vestine. Since there are virtually no original members remaining and the sound seems good but far from its source, maybe this current incarnation should consider changing its name. It's canned all right – but it just ain't the late great Heat.
~ Becky Byrkit, All Music

***************

Canned Heat - Canned Heat Blues Band (1997) {2000, Reissue}

Canned Heat - Canned Heat Blues Band (1997) {2000, Reissue}

Track List:

01. Stranger [5:08]
02. Quiet Woman [4:35]
03. Iron Horse [5:15]
04. Jr.'s Shuffle [4:17]
05. Creole Quenn [3:47]
06. Keep It To Yourself [4:19]
07. Boogie Music [4:35]
08. Goin' Up The Country [3:22]
09. See These Tears [2:31]
10. One Kind Favour [4:27]
11. Oh Baby [4:32]
12. Gorgo Boogie [3:45]

Personnel:
Acoustic Bass - Larry "The Mole" Taylor (tracks: 2, 4, 6, 8, 9)
Drums - Adolfo "Fito" De La Parra
Drums - Adolfo "Fito" De La Parra (tracks: 12)
Electric Bass - Gregg Kage (tracks: 1, 3, 5, 7. 10, 11)
Lead Guitar - Henry "The Sunflower" Vestine, Junior Watson
Organ - Juke Logan (tracks: 4)
Vocals - Brenda Burnes (tracks: 7)
Vocals, Slide Guitar, Harmonica - Robert Lucas

Exact Audio Copy V1.1 from 23. June 2015

EAC extraction logfile from 11. August 2018, 1:31

Canned Heat / Canned Heat Blues Band

Used drive : Optiarc DVD RW AD-7283S Adapter: 1 ID: 0

Read mode : Secure
Utilize accurate stream : Yes
Defeat audio cache : Yes
Make use of C2 pointers : No

Read offset correction : 48
Overread into Lead-In and Lead-Out : No
Fill up missing offset samples with silence : Yes
Delete leading and trailing silent blocks : No
Null samples used in CRC calculations : Yes
Used interface : Native Win32 interface for Win NT & 2000

Used output format : User Defined Encoder
Selected bitrate : 128 kBit/s
Quality : High
Add ID3 tag : No
Command line compressor : C:\Program Files (x86)\Exact Audio Copy\Flac\flac.exe
Additional command line options : -V -8 -T "Genre=%genre%" -T "Artist=%artist%" -T "Title=%title%" -T "Album=%albumtitle%" -T "Date=%year%" -T "Tracknumber=%tracknr%" -T "Comment=%comment%" %source%


TOC of the extracted CD

Track | Start | Length | Start sector | End sector
––––––––––––––––––––––––––––-
1 | 0:00.00 | 5:07.60 | 0 | 23084
2 | 5:07.60 | 4:35.12 | 23085 | 43721
3 | 9:42.72 | 5:14.62 | 43722 | 67333
4 | 14:57.59 | 4:16.39 | 67334 | 86572
5 | 19:14.23 | 3:47.35 | 86573 | 103632
6 | 23:01.58 | 4:19.27 | 103633 | 123084
7 | 27:21.10 | 4:34.62 | 123085 | 143696
8 | 31:55.72 | 3:21.57 | 143697 | 158828
9 | 35:17.54 | 2:30.67 | 158829 | 170145
10 | 37:48.46 | 4:27.27 | 170146 | 190197
11 | 42:15.73 | 4:32.00 | 190198 | 210597
12 | 46:47.73 | 3:45.00 | 210598 | 227472


Range status and errors

Selected range

Filename J:\alexbras\1997 Canned Heat - Canned Heat Blues Band (2000 Seagull 111110-207)\Canned Heat - Canned Heat Blues Band.wav

Peak level 100.0 %
Extraction speed 4.1 X
Range quality 100.0 %
Test CRC B0EBC1AA
Copy CRC B0EBC1AA
Copy OK

No errors occurred


AccurateRip summary

Track 1 accurately ripped (confidence 9) [554CC2C0] (AR v2)
Track 2 accurately ripped (confidence 8) [22D4CEED] (AR v2)
Track 3 accurately ripped (confidence 9) [F7690143] (AR v2)
Track 4 accurately ripped (confidence 9) [EEFADDA9] (AR v2)
Track 5 accurately ripped (confidence 9) [51C56E01] (AR v2)
Track 6 accurately ripped (confidence 9) [98BE5400] (AR v2)
Track 7 accurately ripped (confidence 9) [D8C8FDC8] (AR v2)
Track 8 accurately ripped (confidence 9) [A52B4104] (AR v2)
Track 9 accurately ripped (confidence 9) [85351753] (AR v2)
Track 10 accurately ripped (confidence 9) [2F52A5F2] (AR v2)
Track 11 accurately ripped (confidence 9) [E11D750A] (AR v2)
Track 12 accurately ripped (confidence 9) [A8FEC43B] (AR v2)

All tracks accurately ripped

End of status report

==== Log checksum CF62CEB4816792C5B8A4C6D92BC2C70E840EA91F32B182BC7B0AA9D9D7BC0319 ====

foobar2000 1.3.16 / Dynamic Range Meter 1.1.1
log date: 2018-08-20 11:06:58

––––––––––––––––––––––––––––––––––––––––
Analyzed: Canned Heat / Canned Heat Blues Band
––––––––––––––––––––––––––––––––––––––––

DR Peak RMS Duration Track
––––––––––––––––––––––––––––––––––––––––
DR11 0.00 dB -11.98 dB 5:08 01-Stranger
DR10 -0.02 dB -11.68 dB 4:35 02-Quiet Woman
DR12 -0.07 dB -12.74 dB 5:15 03-Iron Horse
DR10 -0.18 dB -11.76 dB 4:17 04-Jr.'s Shuffle
DR12 0.00 dB -13.71 dB 3:47 05-Creole Quenn
DR12 -0.39 dB -13.84 dB 4:19 06-Keep It To Yourself
DR12 -0.02 dB -12.78 dB 4:35 07-Boogie Music
DR12 -0.41 dB -14.14 dB 3:22 08-Goin' Up The Country
DR11 -0.11 dB -12.14 dB 2:31 09-See These Tears
DR13 0.00 dB -13.45 dB 4:27 10-One Kind Favour
DR11 0.00 dB -11.90 dB 4:32 11-Oh Baby
DR11 -3.04 dB -15.74 dB 3:45 12-Gorgo Boogie
––––––––––––––––––––––––––––––––––––––––

Number of tracks: 12
Official DR value: DR11

Samplerate: 44100 Hz
Channels: 2
Bits per sample: 16
Bitrate: 847 kbps
Codec: FLAC
================================================================================

[CUETools log; Date: 20.08.2018 11:07:05; Version: 2.1.6]
[CTDB TOCID: SA3q3HcAoT_oEkerv9tLjdLrbSg-] found.
Track | CTDB Status
1 | (28/29) Accurately ripped
2 | (28/29) Accurately ripped
3 | (28/29) Accurately ripped
4 | (28/29) Accurately ripped
5 | (28/29) Accurately ripped
6 | (28/29) Accurately ripped
7 | (28/29) Accurately ripped
8 | (28/29) Accurately ripped
9 | (28/29) Accurately ripped
10 | (28/29) Accurately ripped
11 | (29/29) Accurately ripped
12 | (28/29) Accurately ripped
[AccurateRip ID: 0017a055-00d8fa9b-b10bd80c] found.
Track [ CRC | V2 ] Status
01 [a907b5fe|554cc2c0] (02+09/11) Accurately ripped
02 [338a5584|22d4ceed] (02+08/10) Accurately ripped
03 [3c6d00a1|f7690143] (02+09/11) Accurately ripped
04 [9c32c76d|eefadda9] (02+09/11) Accurately ripped
05 [9f105b45|51c56e01] (02+09/11) Accurately ripped
06 [3cbf0813|98be5400] (02+09/11) Accurately ripped
07 [91d85733|d8c8fdc8] (02+09/11) Accurately ripped
08 [e7a4c6c4|a52b4104] (02+09/11) Accurately ripped
09 [7eed9204|85351753] (02+09/11) Accurately ripped
10 [216f89bc|2f52a5f2] (02+09/11) Accurately ripped
11 [8e3d154a|e11d750a] (02+09/11) Accurately ripped
12 [6d240260|a8fec43b] (02+09/11) Accurately ripped
Offsetted by -5:
01 [e401635a] (00/11) No match (V2 was not tested)
02 [93000590] (00/10) No match (V2 was not tested)
03 [9c0f698f] (00/11) No match (V2 was not tested)
04 [0bb804ba] (00/11) No match (V2 was not tested)
05 [3e55bfd0] (00/11) No match (V2 was not tested)
06 [4f67fc61] (00/11) No match (V2 was not tested)
07 [52b55eac] (00/11) No match (V2 was not tested)
08 [d5eef773] (00/11) No match (V2 was not tested)
09 [7c710995] (00/11) No match (V2 was not tested)
10 [5330dfa5] (00/11) No match (V2 was not tested)
11 [596fc85e] (00/11) No match (V2 was not tested)
12 [8a39cc2a] (00/11) No match (V2 was not tested)

Track Peak [ CRC32 ] [W/O NULL] [ LOG ]
– 100,0 [B0EBC1AA] [311BA63D] CRC32
01 100,0 [1EE025DF] [860F3BF4]
02 99,8 [42E9F2B6] [668A729F]
03 99,1 [5931E528] [E27F2A6D]
04 97,9 [64C3618C] [A14DA173]
05 100,0 [9DB458E4] [EAF865C0]
06 95,5 [B84B7146] [013A7766]
07 99,7 [DB90D897] [8AF56702]
08 95,4 [69B24AB9] [207526B2]
09 98,7 [0AC3DFCF] [656A151D]
10 99,9 [B58282EE] [1A6397BB]
11 100,0 [CB053A79] [814DEEEE]
12 70,5 [933AD278] [5702679C]

Canned Heat - Canned Heat Blues Band (1997) {2000, Reissue}

All thanks go to alex1248

>>> Canned Heat in my Blog <<<

Download from icerbox.com: