Subcategories

Canned Heat & John Lee Hooker - Hooker 'n Heat (1971) {2005, Reissue, Remastered}

Posted By: popsakov
Canned Heat & John Lee Hooker - Hooker 'n Heat (1971) {2005, Reissue, Remastered}

Canned Heat & John Lee Hooker - Hooker 'n Heat (1971) {2005, Reissue, Remastered}
2CD | EAC Rip | FLAC (Img) + Cue + Log ~ 499 Mb | MP3 CBR320 ~ 207 Mb
Scans (PNG, 300 dpi) ~ 178 Mb | RAR 5% Recovery
Blues, Electric Blues | BGO Records #BGOCD694

Hooker 'n Heat is a double album released by blues legend John Lee Hooker and blues-rock band Canned Heat in early 1971. It was the last studio album to feature harmonica player, guitarist and songwriter Alan Wilson, who died in September 1970 from a drug overdose. The photo on the album cover was taken after Wilson's death, but his picture can be seen in a frame on the wall behind John Lee Hooker. Guitarist Henry Vestine was also missing from the photo session. The person standing in front of the window, filling in for Henry, is the band's manager, Skip Taylor. Careful examination of the photo reveals that Henry's face was later added by the art department. It was the first of Hooker's albums to chart, reaching number 78 in the Billboard charts.
~ Wiki


When this two-LP set was initially released in January 1971, Canned Heat was back to its R&B roots, sporting slightly revised personnel. In the spring of the previous year, Larry "The Mole" Taylor (bass) and Harvey Mandel (guitar) simultaneously accepted invitations to join John Mayall's concurrent incarnation of the Bluesbreakers. This marked the return of Henry "Sunflower" Vestine (guitar) and the incorporation of Antonio "Tony" de la Barreda (bass), a highly skilled constituent of Aldolfo de la Parra (drums). Sadly, it would also be the final effort to include co-founder Alan "Blind Owl" Wilson, who passed away in September 1970. Hooker 'n Heat (1971) is a low-key affair split between unaccompanied solo John Lee Hooker (guitar/vocals) tunes, collaborations between Hooker and Wilson (piano/guitar/harmonica), as well as five full-blown confabs between Hooker and Heat. The first platter focuses on Hooker's looser entries that vacillate from the relatively uninspired ramblings of "Send Me Your Pillow" and "Drifter" to the essential and guttural "Feelin' Is Gone" or spirited "Bottle Up and Go." The latter being among those with Wilson on piano. Perhaps the best of the batch is the lengthy seven-minute-plus "World Today," which is languid and poignant talking blues, with Hooker lamenting the concurrent state of affairs around the globe. "I Got My Eyes on You" is an unabashed derivative of Hooker's classic "Dimples," with the title changed for what were most likely legal rather than artistic concerns. That said, the readings of the seminal "Burning Hell" and "Bottle Up and Go" kept their familiar monikers intact. The full-fledged collaborations shine as both parties unleash some of their finest respective work. While Canned Heat get top bill – probably as it was the group's record company that sprung for Hooker 'n Heat – make no mistake, as Hooker steers the combo with the same gritty and percussive guitar leads that have become his trademark. The epic "Boogie Chillen No. 2" stretches over 11 and a half minutes and is full of the same swagger as the original, with the support of Canned Heat igniting the verses and simmering on the subsequent instrumental breaks with all killer and no filler. The 2002 two-CD pressing by the French Magic Records label is augmented with "It's All Right," with a single edit of "Whiskey and Wimmen."
~ Lindsay Planer, All Music

***************

Canned Heat & John Lee Hooker - Hooker 'n Heat (1971) {2005, Reissue, Remastered}

Canned Heat & John Lee Hooker - Hooker 'n Heat (1971) {2005, Reissue, Remastered}

Track List CD1:

01. Messin' With The Hook [3:20]
02. The Feelin' Is Gone [4:30]
03. Send Me Your Pillow [4:47]
04. Sittin' Here Thinkin' [4:07]
05. Meet Me In The Bottom [3:33]
06. Alimonia Blues [4:32]
07. Drifter [4:56]
08. You Talk Too Much [3:15]
09. Burning Hell [5:26]
10. Bottle Up And Go [2:29]

Exact Audio Copy V1.0 beta 3 from 29. August 2011

EAC extraction logfile from 18. January 2013, 17:59

Canned Heat & John Lee Hooker / Hooker 'n Heat

Used drive : HL-DT-STBDDVDRW GBC-H20N Adapter: 1 ID: 0

Read mode : Secure
Utilize accurate stream : Yes
Defeat audio cache : Yes
Make use of C2 pointers : No

Read offset correction : 667
Overread into Lead-In and Lead-Out : No
Fill up missing offset samples with silence : Yes
Delete leading and trailing silent blocks : No
Null samples used in CRC calculations : Yes
Used interface : Native Win32 interface for Win NT & 2000

Used output format : User Defined Encoder
Selected bitrate : 1024 kBit/s
Quality : High
Add ID3 tag : No
Command line compressor : C:\Program Files\Exact Audio Copy\wavpack.exe
Additional command line options : -hm %source% %dest%


TOC of the extracted CD

Track | Start | Length | Start sector | End sector
––––––––––––––––––––––––––––-
1 | 0:00.00 | 3:19.39 | 0 | 14963
2 | 3:19.39 | 4:30.36 | 14964 | 35249
3 | 7:50.00 | 4:46.41 | 35250 | 56740
4 | 12:36.41 | 4:07.11 | 56741 | 75276
5 | 16:43.52 | 3:33.20 | 75277 | 91271
6 | 20:16.72 | 4:31.65 | 91272 | 111661
7 | 24:48.62 | 4:56.10 | 111662 | 133871
8 | 29:44.72 | 3:15.00 | 133872 | 148496
9 | 32:59.72 | 5:25.74 | 148497 | 172945
10 | 38:25.71 | 2:28.56 | 172946 | 184101


Range status and errors

Selected range

Filename C:\Users\ProgDog\Music\ZALIVKI\BLUES\Canned Heat\Hooker'n Heat\Disc One\Canned Heat & John Lee Hooker - Hooker 'n Heat.wav

Peak level 100.0 %
Extraction speed 5.6 X
Range quality 100.0 %
Test CRC 9246F89B
Copy CRC 9246F89B
Copy OK

No errors occurred


AccurateRip summary

Track 1 cannot be verified as accurate (confidence 4) [A76441DF], AccurateRip returned [1868DC44] (AR v2)
Track 2 cannot be verified as accurate (confidence 4) [C7B531B6], AccurateRip returned [47541074] (AR v2)
Track 3 cannot be verified as accurate (confidence 4) [11903367], AccurateRip returned [7C6AE9CB] (AR v2)
Track 4 cannot be verified as accurate (confidence 4) [5CF80435], AccurateRip returned [AD5DA245] (AR v2)
Track 5 cannot be verified as accurate (confidence 4) [67F8C32B], AccurateRip returned [073FC101] (AR v2)
Track 6 cannot be verified as accurate (confidence 4) [3FC84B17], AccurateRip returned [5EC87703] (AR v2)
Track 7 cannot be verified as accurate (confidence 4) [80D2C942], AccurateRip returned [1966354D] (AR v2)
Track 8 cannot be verified as accurate (confidence 4) [A0BF5231], AccurateRip returned [91CF9B0F] (AR v2)
Track 9 cannot be verified as accurate (confidence 4) [E0691B9A], AccurateRip returned [160A6E44] (AR v2)
Track 10 cannot be verified as accurate (confidence 4) [CA9EA0DB], AccurateRip returned [3619D563] (AR v2)

No tracks could be verified as accurate
You may have a different pressing from the one(s) in the database

End of status report

–– CUETools DB Plugin V2.1.3

[CTDB TOCID: Gf2qtHRezdEu8N.KImx5wA.pkRw-] found, Submit result: Gf2qtHRezdEu8N.KImx5wA.pkRw- has been confirmed
[d7747120] (3/3) Accurately ripped


==== Log checksum A81B48621D1A50DB52C92679E12991B97A663EC4AEAC4C6E08EFF8D212C357B2 ====

foobar2000 1.2.6 / Dynamic Range Meter 1.1.1
log date: 2016-10-15 01:50:50

––––––––––––––––––––––––––––––––––––––––
Analyzed: Canned Heat & John Lee Hooker / Hooker 'n Heat CD1
––––––––––––––––––––––––––––––––––––––––

DR Peak RMS Duration Track
––––––––––––––––––––––––––––––––––––––––
DR12 0.00 dB -14.11 dB 3:20 01-Messin' With The Hook
DR11 0.00 dB -15.18 dB 4:30 02-The Feelin' Is Gone
DR11 0.00 dB -14.15 dB 4:47 03-Send Me Your Pillow
DR11 0.00 dB -16.55 dB 4:07 04-Sittin' Here Thinkin'
DR11 0.00 dB -14.09 dB 3:33 05-Meet Me In The Bottom
DR11 0.00 dB -15.19 dB 4:32 06-Alimonia Blues
DR13 0.00 dB -17.08 dB 4:56 07-Drifter
DR12 0.00 dB -13.84 dB 3:15 08-You Talk Too Much
DR11 0.00 dB -13.93 dB 5:26 09-Burning Hell
DR12 0.00 dB -15.99 dB 2:29 10-Bottle Up And Go
––––––––––––––––––––––––––––––––––––––––

Number of tracks: 10
Official DR value: DR11

Samplerate: 44100 Hz
Channels: 2
Bits per sample: 16
Bitrate: 724 kbps
Codec: FLAC
================================================================================

[CUETools log; Date: 15.10.2016 1:50:48; Version: 2.1.5]
[CTDB TOCID: Gf2qtHRezdEu8N.KImx5wA.pkRw-] found.
Track | CTDB Status
1 | (16/16) Accurately ripped
2 | (16/16) Accurately ripped
3 | (16/16) Accurately ripped
4 | (16/16) Accurately ripped
5 | (16/16) Accurately ripped
6 | (16/16) Accurately ripped
7 | (16/16) Accurately ripped
8 | (16/16) Accurately ripped
9 | (16/16) Accurately ripped
10 | (16/16) Accurately ripped
[AccurateRip ID: 000fa247-007d95b5-7b09960a] found.
Track [ CRC | V2 ] Status
01 [7afe7104|a76441df] (00+03/27) Accurately ripped
02 [bf0c80d8|c7b531b6] (00+03/27) Accurately ripped
03 [116c774b|11903367] (00+03/27) Accurately ripped
04 [fd3ec021|5cf80435] (00+03/27) Accurately ripped
05 [b8431519|67f8c32b] (00+03/27) Accurately ripped
06 [74040007|3fc84b17] (00+03/26) Accurately ripped
07 [70b177d9|80d2c942] (00+03/27) Accurately ripped
08 [0d501013|a0bf5231] (00+03/27) Accurately ripped
09 [13e37308|e0691b9a] (00+03/27) Accurately ripped
10 [9c47d3ab|ca9ea0db] (00+03/27) Accurately ripped
Offsetted by -12:
01 [1868dc44] (04/27) Accurately ripped
02 [47541074] (04/27) Accurately ripped
03 [7c6ae9cb] (04/27) Accurately ripped
04 [ad5da245] (04/27) Accurately ripped
05 [073fc101] (04/27) Accurately ripped
06 [5ec87703] (04/26) Accurately ripped
07 [1966354d] (04/27) Accurately ripped
08 [91cf9b0f] (04/27) Accurately ripped
09 [160a6e44] (04/27) Accurately ripped
10 [3619d563] (04/27) Accurately ripped
Offsetted by 774:
01 [d1ae6b64] (00/27) No match (V2 was not tested)
02 [6904d20a] (00/27) No match (V2 was not tested)
03 [1c509e0b] (00/27) No match (V2 was not tested)
04 [9d76c60f] (00/27) No match (V2 was not tested)
05 [d199c525] (00/27) No match (V2 was not tested)
06 [cd840589] (00/26) No match (V2 was not tested)
07 [ef27bc1f] (00/27) No match (V2 was not tested)
08 [ab2d8b95] (00/27) No match (V2 was not tested)
09 [8911266a] (00/27) No match (V2 was not tested)
10 [dade64cf] (00/27) No match (V2 was not tested)

Track Peak [ CRC32 ] [W/O NULL] [ LOG ]
– 100,0 [9246F89B] [19B298B5] CRC32
01 100,0 [0CD5DC3B] [4FAA9520]
02 100,0 [49F56DBE] [159E6035]
03 100,0 [2CE77652] [1833A0FD]
04 100,0 [FA41D03F] [4C94108B]
05 100,0 [FE03DA07] [01A4C1E6]
06 100,0 [E2828130] [02451961]
07 100,0 [3C53D9F4] [6F377831]
08 100,0 [AB74D8AE] [5624B2EA]
09 100,0 [5BC878A0] [DBEDEE6F]
10 100,0 [A0B1187C] [BC20FC29]

Canned Heat & John Lee Hooker - Hooker 'n Heat (1971) {2005, Reissue, Remastered}

Canned Heat & John Lee Hooker - Hooker 'n Heat (1971) {2005, Reissue, Remastered}

Track List CD2:

01. The World Today [7:45]
02. I Got My Eyes On You [4:25]
03. Whiskey And Wimmen' [4:35]
04. Just You And Me [7:39]
05. Let's Make It [4:05]
06. Peavine [5:05]
07. Boogie Chillen No. 2 [11:33]

Exact Audio Copy V1.0 beta 3 from 29. August 2011

EAC extraction logfile from 18. January 2013, 19:21

Canned Heat & John Lee Hooker / Hooker 'n Heat

Used drive : HL-DT-STBDDVDRW GBC-H20N Adapter: 1 ID: 0

Read mode : Secure
Utilize accurate stream : Yes
Defeat audio cache : Yes
Make use of C2 pointers : No

Read offset correction : 667
Overread into Lead-In and Lead-Out : No
Fill up missing offset samples with silence : Yes
Delete leading and trailing silent blocks : No
Null samples used in CRC calculations : Yes
Used interface : Native Win32 interface for Win NT & 2000

Used output format : User Defined Encoder
Selected bitrate : 1024 kBit/s
Quality : High
Add ID3 tag : No
Command line compressor : C:\Program Files\Exact Audio Copy\wavpack.exe
Additional command line options : -hm %source% %dest%


TOC of the extracted CD

Track | Start | Length | Start sector | End sector
––––––––––––––––––––––––––––-
1 | 0:00.00 | 7:44.61 | 0 | 34860
2 | 7:44.61 | 4:25.15 | 34861 | 54750
3 | 12:10.01 | 4:34.60 | 54751 | 75360
4 | 16:44.61 | 7:39.00 | 75361 | 109785
5 | 24:23.61 | 4:04.56 | 109786 | 128141
6 | 28:28.42 | 5:04.42 | 128142 | 150983
7 | 33:33.09 | 11:33.25 | 150984 | 202983


Range status and errors

Selected range

Filename C:\Users\ProgDog\Music\ZALIVKI\BLUES\Canned Heat\Hooker'n Heat\Disc Two\Canned Heat & John Lee Hooker - Hooker 'n Heat.wav

Peak level 100.0 %
Extraction speed 5.7 X
Range quality 99.9 %
Test CRC D97802FB
Copy CRC D97802FB
Copy OK

No errors occurred


AccurateRip summary

Track 1 cannot be verified as accurate (confidence 2) [042205ED], AccurateRip returned [3B574C12] (AR v2)
Track 2 cannot be verified as accurate (confidence 2) [FED1556D], AccurateRip returned [16675090] (AR v2)
Track 3 cannot be verified as accurate (confidence 2) [96DA27BA], AccurateRip returned [553F1475] (AR v2)
Track 4 cannot be verified as accurate (confidence 2) [D3199E6D], AccurateRip returned [413597EE] (AR v2)
Track 5 cannot be verified as accurate (confidence 2) [09673BF8], AccurateRip returned [CF0C65FF] (AR v2)
Track 6 cannot be verified as accurate (confidence 2) [E2626676], AccurateRip returned [6FECEE1F] (AR v2)
Track 7 cannot be verified as accurate (confidence 2) [22549644], AccurateRip returned [596E15C3] (AR v2)

No tracks could be verified as accurate
You may have a different pressing from the one(s) in the database

End of status report

–– CUETools DB Plugin V2.1.3

[CTDB TOCID: 6T_eMC39k7sIOLIm4PLlOAc1.vI-] found, Submit result: already submitted
[8a092b6b] (4/4) Accurately ripped


==== Log checksum 27306567197A009F4522A22EF7344708904C7823748C91B1757E137AE5839412 ====

foobar2000 1.2.6 / Dynamic Range Meter 1.1.1
log date: 2016-10-15 01:51:17

––––––––––––––––––––––––––––––––––––––––
Analyzed: Canned Heat & John Lee Hooker / Hooker 'n Heat CD2
––––––––––––––––––––––––––––––––––––––––

DR Peak RMS Duration Track
––––––––––––––––––––––––––––––––––––––––
DR16 0.00 dB -20.34 dB 7:45 01-The World Today
DR13 0.00 dB -14.93 dB 4:25 02-I Got My Eyes On You
DR11 0.00 dB -12.40 dB 4:35 03-Whiskey And Wimmen'
DR13 0.00 dB -15.30 dB 7:39 04-Just You And Me
DR12 0.00 dB -12.98 dB 4:05 05-Let's Make It
DR11 0.00 dB -12.32 dB 5:05 06-Peavine
DR8 0.00 dB -10.53 dB 11:33 07-Boogie Chillen No. 2
––––––––––––––––––––––––––––––––––––––––

Number of tracks: 7
Official DR value: DR12

Samplerate: 44100 Hz
Channels: 2
Bits per sample: 16
Bitrate: 813 kbps
Codec: FLAC
================================================================================

[CUETools log; Date: 15.10.2016 1:51:18; Version: 2.1.5]
[CTDB TOCID: 6T_eMC39k7sIOLIm4PLlOAc1.vI-] found.
Track | CTDB Status
1 | (17/17) Accurately ripped
2 | (17/17) Accurately ripped
3 | (17/17) Accurately ripped
4 | (17/17) Accurately ripped
5 | (16/17) Accurately ripped
6 | (17/17) Accurately ripped
7 | (17/17) Accurately ripped
[AccurateRip ID: 000b8c85-00452eca-460a9207] found.
Track [ CRC | V2 ] Status
01 [66e8ceda|042205ed] (00+03/26) Accurately ripped
02 [76f274c4|fed1556d] (00+03/26) Accurately ripped
03 [004dcb91|96da27ba] (00+03/26) Accurately ripped
04 [35ffe03e|d3199e6d] (00+03/26) Accurately ripped
05 [712dc75f|09673bf8] (00+03/26) Accurately ripped
06 [cac10857|e2626676] (00+03/26) Accurately ripped
07 [09e91aeb|22549644] (00+03/26) Accurately ripped
Offsetted by -80:
01 [99c966fa] (02/26) Accurately ripped
02 [48a82e14] (02/26) Accurately ripped
03 [8bebb181] (02/26) Accurately ripped
04 [80bb537e] (02/26) Accurately ripped
05 [e2f9e8df] (02/26) Accurately ripped
06 [6d3b0437] (02/26) Accurately ripped
07 [c6b4f88b] (02/26) Accurately ripped
Offsetted by -12:
01 [3b574c12] (02/26) Accurately ripped
02 [16675090] (02/26) Accurately ripped
03 [553f1475] (02/26) Accurately ripped
04 [413597ee] (02/26) Accurately ripped
05 [cf0c65ff] (02/26) Accurately ripped
06 [6fecee1f] (02/26) Accurately ripped
07 [596e15c3] (02/26) Accurately ripped
Offsetted by 12:
01 [927a51a2] (00/26) No match (V2 was not tested)
02 [d77d98f8] (00/26) No match (V2 was not tested)
03 [ab5c82ad] (00/26) No match (V2 was not tested)
04 [2aca288e] (00/26) No match (V2 was not tested)
05 [134f28bf] (00/26) No match (V2 was not tested)
06 [2595228f] (00/26) No match (V2 was not tested)
07 [ba642013] (00/26) No match (V2 was not tested)
Offsetted by 774:
01 [e112423e] (00/26) No match (V2 was not tested)
02 [4a0113de] (00/26) No match (V2 was not tested)
03 [1982ee1f] (00/26) No match (V2 was not tested)
04 [e2f71866] (00/26) No match (V2 was not tested)
05 [ca96d00f] (00/26) No match (V2 was not tested)
06 [2d31a373] (00/26) No match (V2 was not tested)
07 [80e7e77f] (00/26) No match (V2 was not tested)

Track Peak [ CRC32 ] [W/O NULL] [ LOG ]
– 100,0 [D97802FB] [B5A5E5E5] CRC32
01 100,0 [EA4C2F88] [0A00739F]
02 100,0 [5BF0591A] [D99D2EA6]
03 100,0 [7BCE1073] [03971B77]
04 100,0 [2CD7B650] [E3584A81]
05 100,0 [EA8BF5CA] [EAD35404]
06 100,0 [B22A377C] [2514D0D4]
07 100,0 [ECB09E9F] [C69C06C2]

Canned Heat & John Lee Hooker - Hooker 'n Heat (1971) {2005, Reissue, Remastered}

All thanks go to AD's

> John Lee Hooker in my blog <

Download: