Subcategories

Cannibal Ox - The Cold Vein (2001)

Posted By: mook45
Cannibal Ox - The Cold Vein (2001)

Cannibal Ox - The Cold Vein (2001)
EAC | FLAC IMG,CUE+LOG = 509MB | MP3@320 = 206MB | 600 dpi Scans
Leftfield Hip-Hop | Label: Def Jux - DJX07-2 | FSe/FSo/FF/NL/WU


While it can be said that many underground crews have been floundering in the gray matter of indie hip-hop, Cannibal Ox filled that area in with 2001's The Cold Vein for El P's Def Jux imprint. The music press had been quick to point out that Vast Aire and Vordul Megilah's attack is at times highly derivative of the Wu Tang Clan, and the point is valid. Thankfully, El P (a serious candidate for producer of the year) lays out some of the most lushly intriguing sounds and beats that feel as herky-jerky as they sound gilded with silk. It's a bit misleading to harp on the Wu factor that The Cold Vein contains since this record's content is immensely original and the Wu references that seem present are in the enlightened gloomy flow and psychedelic backdrops – not, (with all due respect) in the kitschy hooks and unfocused rhymes that Wu Tang are also known for. Aire and Megilah swirl around in b-boy posturing and obtuse nonsense as their innovation rears its head at every corner with scatter-shot lines like: "And I ain't dealin' with no minimum wage/I'd rather construct rhymes on a minimum page," and "You were a still-born baby, your mother didn't want you but you were still-born." ****1/2 AMG Album Pick

Track listing
1. Iron Galaxy
2. Ox Out Of The Cage
3. Atom - Cannibal Ox & Alaska/Cryptic
4. B-Boy's Alpha
5. Raspberry Fields
6. Straight Off The DIC
7. Vein
8. F Word
9. Stress Rap
10. Battle For Asgard - Cannibal Ox & LIFE Long/C Rayz Walz
11. Real Earth
12. Ridiculoid - Cannibal Ox & El-P
13. Painkillers
14. Pigeon

Exact Audio Copy V1.0 beta 1 from 15. November 2010

EAC extraction logfile from 21. June 2011, 22:39

Cannibal Ox / The Cold Vein

Used drive : HP DVD Writer 1040r Adapter: 1 ID: 0

Read mode : Secure
Utilize accurate stream : Yes
Defeat audio cache : Yes
Make use of C2 pointers : No

Read offset correction : 6
Overread into Lead-In and Lead-Out : No
Fill up missing offset samples with silence : Yes
Delete leading and trailing silent blocks : No
Null samples used in CRC calculations : No
Used interface : Native Win32 interface for Win NT & 2000

Used output format : User Defined Encoder
Selected bitrate : 1024 kBit/s
Quality : High
Add ID3 tag : No
Command line compressor : C:\Program Files\Exact Audio Copy\FLAC\FLAC.EXE
Additional command line options : -6 -V -T "ARTIST=%a" -T "TITLE=%t" -T "ALBUM=%g" -T "DATE=%y" -T "TRACKNUMBER=%n" -T "GENRE=%m" -T "COMMENT=%e" %j–picture="%i"%j %s -o %d


TOC of the extracted CD

Track | Start | Length | Start sector | End sector
––––––––––––––––––––––––––––-
1 | 0:00.00 | 5:56.60 | 0 | 26759
2 | 5:56.60 | 3:28.72 | 26760 | 42431
3 | 9:25.57 | 5:52.18 | 42432 | 68849
4 | 15:18.00 | 4:27.40 | 68850 | 88914
5 | 19:45.40 | 4:01.52 | 88915 | 107041
6 | 23:47.17 | 4:17.03 | 107042 | 126319
7 | 28:04.20 | 4:27.30 | 126320 | 146374
8 | 32:31.50 | 5:27.45 | 146375 | 170944
9 | 37:59.20 | 5:31.55 | 170945 | 195824
10 | 43:31.00 | 4:26.32 | 195825 | 215806
11 | 47:57.32 | 3:57.00 | 215807 | 233581
12 | 51:54.32 | 4:46.50 | 233582 | 255081
13 | 56:41.07 | 5:58.65 | 255082 | 281996
14 | 62:39.72 | 6:10.08 | 281997 | 309754
15 | 68:50.05 | 5:05.22 | 309755 | 332651


Range status and errors

Selected range

Filename C:\Users\Mike3\Desktop\Cannibal Ox - The Cold Vein\Cannibal Ox - The Cold Vein.wav

Suspicious position 1:13:55

Peak level 100.0 %
Extraction speed 0.2 X
Range quality 99.9 %
Test CRC CB6E9DA3
Copy CRC CB6E9DA3
Copy finished

There were errors


AccurateRip summary

Track 1 accurately ripped (confidence 30) [51790E8E]
Track 2 accurately ripped (confidence 30) [0A1CB68E]
Track 3 accurately ripped (confidence 30) [0A2DAF8B]
Track 4 accurately ripped (confidence 30) [EFDF8628]
Track 5 accurately ripped (confidence 29) [C8B7B8F4]
Track 6 accurately ripped (confidence 31) [6204FF57]
Track 7 accurately ripped (confidence 30) [8FA0A3BA]
Track 8 accurately ripped (confidence 29) [1CF9629F]
Track 9 accurately ripped (confidence 30) [BB647E54]
Track 10 accurately ripped (confidence 28) [A03F4FA8]
Track 11 accurately ripped (confidence 27) [B8D1DCF6]
Track 12 accurately ripped (confidence 28) [94BD46AA]
Track 13 accurately ripped (confidence 27) [DD99A9FE]
Track 14 accurately ripped (confidence 27) [69AE9979]
Track 15 cannot be verified as accurate (confidence 22) [D0402B15], AccurateRip returned [00591026]

14 track(s) accurately ripped
1 track(s) could not be verified as accurate

Some tracks could not be verified as accurate

End of status report

==== Log checksum 655804A08EB025D249A2D1DF162AFA7649BBDA578C08E988063A6B1BDD929009 ====


Download:

Tar files, manually extract with any extractor

320

FilesonicFileserveFilefactoryNetloadWUpload

Flac

FilesonicFileserveFilefactoryNetloadWUpload

No mirrors