Subcategories

Captain & Tennille - Captain & Tennille's Greatest Hits (1977) {Reissue}

Posted By: popsakov
Captain & Tennille - Captain & Tennille's Greatest Hits (1977) {Reissue}

Captain & Tennille - Captain & Tennille's Greatest Hits (1977) {Reissue}
EAC Rip | FLAC (Img) + Cue + Log ~ 285 Mb | MP3 CBR320 ~ 140 Mb
Full Scans | 00:42:12 | RAR 5% Recovery
Soft Rock, Pop Rock, AM Pop | A&M Records #CDA3105

Soft rock duo Daryl Dragon and Toni Tennille definitely didn't fit everybody's notions of cool. "Muskrat Love" is a quintessential slice of novelty cheese that could only have scored during the '70s. But it's unfair to judge them by something they didn't write and isn't representative of their career. (However, Dragon's bare-chested poses on the original gatefold sleeve definitely fell into the "what were they thinking?" file.) Otherwise, there aren't any blemishes on this roundup of their first three A&M albums – a commercial coup accorded to few acts so early in their careers. The buoyant "Love Will Keep Us Together" is the natural opener – and set the template for a style centered around Dragon's lush, baroque keyboards and Tennille's breathy, intimate vocals. The song also showed the duo's good taste in material; it's one of three hits written by Neil Sedaka, whose "Lonely Nights (Angel Face)" is also included. Tennille is exceptional form, especially on "Wedding Song (There Is Love)" and an evocative version of "Disney Girls," by former Beach Boys vocalist Bruce Johnston. He also gave them "I Write the Songs," which naturally differs from the Barry Manilow hit version; the massed vocal choir at the intro shows the tricks that presumably rubbed off from Dragon's early-'70s touring days with the Beach Boys. 1990s-era compilations have supplanted this album's relevance, but the track listing shows how smart cherry-picking of a back catalog can serve casual and committed fans alike. Most of the tunes stand up, so why apologize for picking up this guilty pleasure?

~ Ralph Heibutzki, All Music
Captain & Tennille - Captain & Tennille's Greatest Hits (1977) {Reissue}


***************

Captain & Tennille - Captain & Tennille's Greatest Hits (1977) {Reissue}

Captain & Tennille - Captain & Tennille's Greatest Hits (1977) {Reissue}

Track List:

01. Love Will Keep Us Together [3:27]
02. Muskrat Love [3:50]
03. Circles [2:47]
04. Wedding Song (There Is Love) [3:22]
05. Come in From the Rain [4:38]
06. Lonely Night (Angel Face) [3:19]
07. Shop Around [3:30]
08. I Write the Songs [3:31]
09. The Way I Want to Touch You [2:48]
10. Disney Girls [4:47]
11. Can't Stop Dancin' [3:54]
12. We Never Really Say Goodbye [2:19]

Exact Audio Copy V1.3 from 2. September 2016

Отчёт EAC об извлечении, выполненном 4. ноября 2019, 22:44

Captain & Tennille / Captain & Tennille's Greatest Hits

Дисковод: PLEXTOR DVDR PX-712A Adapter: 1 ID: 0

Режим чтения : Достоверность
Использование точного потока : Да
Отключение кэша аудио : Да
Использование указателей C2 : Нет

Коррекция смещения при чтении : 30
Способность читать области Lead-in и Lead-out : Нет
Заполнение пропущенных сэмплов тишиной : Да
Удаление блоков с тишиной в начале и конце : Нет
При вычислениях CRC использовались нулевые сэмплы : Да
Интерфейс : Установленный внешний ASPI-интерфейс

Выходной формат : Пользовательский кодировщик
Выбранный битрейт : 128 kBit/s
Качество : Высокий
Добавление ID3-тега : Нет
Утилита сжатия : C:\Program Files\Exact Audio Copy\FLAC\FLAC.EXE
Дополнительные параметры : -V -8 -T "Genre=%genre%" -T "Artist=%artist%" -T "Title=%title%" -T "Album=%albumtitle%" -T "Date=%year%" -T "Tracknumber=%tracknr%" -T "Comment=%comment%" %source%


TOC извлечённого CD

Трек | Старт | Длительность | Начальный сектор | Конечный сектор
––––––––––––––––––––––––––––––––––-
1 | 0:00.45 | 3:27.22 | 45 | 15591
2 | 3:27.67 | 3:50.35 | 15592 | 32876
3 | 7:18.27 | 2:46.43 | 32877 | 45369
4 | 10:04.70 | 3:21.47 | 45370 | 60491
5 | 13:26.42 | 4:38.00 | 60492 | 81341
6 | 18:04.42 | 3:18.38 | 81342 | 96229
7 | 21:23.05 | 3:30.27 | 96230 | 112006
8 | 24:53.32 | 3:30.60 | 112007 | 127816
9 | 28:24.17 | 2:48.28 | 127817 | 140444
10 | 31:12.45 | 4:47.22 | 140445 | 161991
11 | 35:59.67 | 3:53.63 | 161992 | 179529
12 | 39:53.55 | 2:18.65 | 179530 | 189944


Характеристики диапазона извлечения и сообщения об ошибках

Выбранный диапазон

Имя файла I:\MOI_RAZDACI\Captain & Tennille - Captain & Tennille's Greatest Hits (1977)\Captain & Tennille - Captain & Tennille's Greatest Hits (1977)\Captain & Tennille - Captain & Tennille's Greatest Hits.wav

Пиковый уровень 100.0 %
Скорость извлечения 11.9 X
Качество диапазона 100.0 %
CRC теста 3B20370A
CRC копии 3B20370A
Копирование… OK

Ошибок не произошло

Конец отчёта

–– CUETools DB Plugin V2.1.6

[CTDB TOCID: 86vjUghEAMYrftUJnkYHy5pLwqk-] found
Submit result: 86vjUghEAMYrftUJnkYHy5pLwqk- has been confirmed
Track | CTDB Status
1 | (6/6) Accurately ripped
2 | (6/6) Accurately ripped
3 | (6/6) Accurately ripped
4 | (6/6) Accurately ripped
5 | (6/6) Accurately ripped
6 | (6/6) Accurately ripped
7 | (6/6) Accurately ripped
8 | (6/6) Accurately ripped
9 | (6/6) Accurately ripped
10 | (6/6) Accurately ripped
11 | (6/6) Accurately ripped
12 | (6/6) Accurately ripped


==== Контрольная сумма отчёта FB05363F29070D105E8502AD077C088B8413ABEA7B0BC3F44EE972E3593FBAD5 ====

Captain & Tennille - Captain & Tennille's Greatest Hits (1977) {Reissue}


All thanks go to stas64

>>> My Blog <<<

DOWNLOAD: