Subcategories

Caravan - In the Land of Grey and Pink (1971) [2011, 40th Anniversary Deluxe Edition, 2CD+DVD] Re-up

Posted By: v3122
Caravan - In the Land of Grey and Pink (1971) [2011, 40th Anniversary Deluxe Edition, 2CD+DVD] Re-up

Caravan - In the Land of Grey and Pink (1971)
EAC Rip | Flac(Image) + Cue + Log & MP3 CBR 320Kbps
2CD | Scans Included | Decca, 533 316-2, 3 | ~ 842 or 328 Mb
DVD-Audio | DD 5.1 and DD 2.0 | ~ 4000 Mb
Progressive Rock / Canterbury Scene

In the Land of Grey and Pink is considered by many to be a pinnacle release from Caravan. The album contains an undeniable and decidedly European sense of humor and charm. In addition, this would mark the end of the band's premiere lineup. Co-founder David Sinclair would leave Caravan to form Matching Mole with Soft Machine drummer and vocalist Robert Wyatt in August of 1971. As a group effort, In the Land of Grey and Pink displays all the ethereal brilliance Caravan created on their previous pair of 12" outings. Their blending of jazz and folk instrumentation and improvisational styles hints at Traffic and Family, as displayed on "Winter Wine," as well as the organ and sax driven instrumental introduction to "Nine Feet Underground." These contrast the decidedly aggressive sounds concurrent with albums from King Crimson or Soft Machine. In fact, beginning with the album's title, there seems to be pastoral qualities and motifs throughout. Another reason enthusiasts rank this album among their favorites is the group dynamic which has rarely sounded more singular or cohesive. David Sinclair's lyrics are of particular note, especially the middle-earth imagery used on "Winter Wine" or the enduring whimsy of "Golf Girl." The remastered version of this album includes previously unissued demos/alternate versions of both tracks under the titles: "It's Likely to Have a Name Next Week" and "Group Girl," respectively. The remastered disc also includes "I Don't Know Its Name (Alias the Word)" and "Aristocracy," two pieces that were completed, but shelved in deference to the time limitations imposed during the days of wine and vinyl. The latter composition would be reworked and released on Caravan's next album, Waterloo Lily. The 12-page liner notes booklet includes expanded graphics, memorabilia, and an essay penned specifically for the reissue.

by Lindsay Planer, AMG

Caravan - In the Land of Grey and Pink (1971) [2011, 40th Anniversary Deluxe Edition, 2CD+DVD] Re-up
Caravan - In the Land of Grey and Pink (1971) [2011, 40th Anniversary Deluxe Edition, 2CD+DVD]:

Caravan - In the Land of Grey and Pink (1971) [2011, 40th Anniversary Deluxe Edition, 2CD+DVD] Re-up

Tracklist CD1:

1. Golf Girl
2. Winter Wine
3. Love To Love You (And Tonight Pigs Will Fly)
4. In The Land Of Grey And Pink
5. Nine Feet Underground

Bonus tracks:

6. Frozen Rose (I Don't Know Its Name Alias The Word)
7. Love To Love You (And Tonight Pigs Will Fly) (1st version)
8. Nine Feet Underground (Alternative mix by Steven Wilson)

Exact Audio Copy V0.99 prebeta 1 from 25. May 2007

Отчёт EAC об извлечении, выполненном 5. июля 2011, 19:04

Caravan / In the Land of Grey and Pink (CD1)

Дисковод: PIONEER DVD-RW DVR-212D Adapter: 1 ID: 1

Режим чтения : Достоверность
Использование точного потока : Да
Отключение кэша аудио : Да
Использование указателей C2 : Нет

Коррекция смещения при чтении : 48
Способность читать области Lead-in и Lead-out : Нет
Заполнение пропущенных сэмплов тишиной : Да
Удаление блоков с тишиной в начале и конце : Нет
Интерфейс : Установленный внешний ASPI-интерфейс

Выходной формат : Пользовательский кодировщик
Выбранный битрейт : 768 kBit/s
Качество : Высокий
Добавление ID3-тэга : Нет
Утилита сжатия : C:\Program Files\Exact Audio Copy\FLAC\FLAC.EXE
Дополнительные параметры : -6 -V -T "ARTIST=%a" -T "TITLE=%t" -T "ALBUM=%g" -T "DATE=%y" -T "TRACKNUMBER=%n" -T "GENRE=%m" -T "COMMENT=%e" %s -o %d


TOC извлечённого CD

Трек | Старт | Длительность | Начальный сектор | Конечный сектор
––––––––––––––––––––––––––––––––––-
1 | 0:00.00 | 5:01.25 | 0 | 22599
2 | 5:01.25 | 7:36.26 | 22600 | 56825
3 | 12:37.51 | 3:04.02 | 56826 | 70627
4 | 15:41.53 | 5:00.18 | 70628 | 93145
5 | 20:41.71 | 22:48.54 | 93146 | 195799
6 | 43:30.50 | 6:10.08 | 195800 | 223557
7 | 49:40.58 | 3:28.05 | 223558 | 239162
8 | 53:08.63 | 22:39.62 | 239163 | 341149


Характеристики диапазона извлечения и сообщения об ошибках

Выбранный диапазон

Имя файла E:\Caravan(1971)\CD1\Caravan - In the Land of Grey and Pink (CD1).wav

Пиковый уровень 98.8 %
Качество диапазона 100.0 %
CRC теста C4771C9D
CRC копии C4771C9D
Копирование… OK


AccurateRip: сводка

Трек 1 нет в базе данных
Трек 2 нет в базе данных
Трек 3 нет в базе данных
Трек 4 нет в базе данных
Трек 5 нет в базе данных
Трек 6 нет в базе данных
Трек 7 нет в базе данных
Трек 8 нет в базе данных

Ошибок не произошло

Конец отчёта

foobar2000 1.1.18 / Dynamic Range Meter 1.1.1
log date: 2013-02-17 18:06:39

––––––––––––––––––––––––––––––––––––––––
Analyzed: Caravan / In the Land of Grey and Pink (CD1)
––––––––––––––––––––––––––––––––––––––––

DR Peak RMS Duration Track
––––––––––––––––––––––––––––––––––––––––
DR11 -0.18 dB -13.17 dB 5:01 01-Golf girl
DR12 -0.24 dB -14.68 dB 7:36 02-Winter wine
DR11 -0.18 dB -13.91 dB 3:04 03-Love to love you (And tonight's pigs will fly)
DR12 -0.18 dB -14.19 dB 5:00 04-In the land of grey and pink
DR11 -0.10 dB -14.28 dB 22:49 05-Nine feet underground
DR13 -0.10 dB -15.70 dB 6:10 06-Frozen rose (I don't know its name alias the word)
DR14 -0.10 dB -16.30 dB 3:28 07-Love to love you (And tonight's pigs will fly) First Version
DR13 -0.10 dB -15.75 dB 22:40 08-Nine feet underground (Alternate mix by Steven Wilson)
––––––––––––––––––––––––––––––––––––––––

Number of tracks: 8
Official DR value: DR12

Samplerate: 44100 Hz
Channels: 2
Bits per sample: 16
Bitrate: 837 kbps
Codec: FLAC

Caravan - In the Land of Grey and Pink (1971) [2011, 40th Anniversary Deluxe Edition, 2CD+DVD] Re-up

Tracklist CD2:

1. Aristocrasy
2. It Doesn't Take A Lot *
3. Love To Love You (And Tonight Pigs Will Fly) (Extended Version)
4. It's Likely To Have A Name Next Week ("Winter Wine" Instrumental Demo)
5. Nigel Blows A Tune (1st version) *
6. Group Girl ("Golf Girl" 1st version)
7. Love Song Without Flute
8. In The Land Of Grey And Pink
9. Love To Love You (And Tonight Pigs Will Fly)
10.Nine Feet Underground
11. Feelin', Reelin', Squealin'

1-6 Album Session Recordings, December 1970
7-9 Recorded for the BBC's "Sounds Of The Seventies", 11 March 1971
10-11 Recorded for John Peel's Sunday Concert at the Paris Theatre, 6th May 1971


Exact Audio Copy V0.99 prebeta 1 from 25. May 2007

Отчёт EAC об извлечении, выполненном 28. июня 2011, 22:00

Caravan / In the Land of Grey and Pink (CD 2)

Дисковод: PIONEER DVD-RW DVR-212D Adapter: 1 ID: 1

Режим чтения : Достоверность
Использование точного потока : Да
Отключение кэша аудио : Да
Использование указателей C2 : Нет

Коррекция смещения при чтении : 48
Способность читать области Lead-in и Lead-out : Нет
Заполнение пропущенных сэмплов тишиной : Да
Удаление блоков с тишиной в начале и конце : Нет
Интерфейс : Установленный внешний ASPI-интерфейс

Выходной формат : Пользовательский кодировщик
Выбранный битрейт : 768 kBit/s
Качество : Высокий
Добавление ID3-тэга : Нет
Утилита сжатия : C:\Program Files\Exact Audio Copy\FLAC\FLAC.EXE
Дополнительные параметры : -6 -V -T "ARTIST=%a" -T "TITLE=%t" -T "ALBUM=%g" -T "DATE=%y" -T "TRACKNUMBER=%n" -T "GENRE=%m" -T "COMMENT=%e" %s -o %d


TOC извлечённого CD

Трек | Старт | Длительность | Начальный сектор | Конечный сектор
––––––––––––––––––––––––––––––––––-
1 | 0:00.00 | 3:17.26 | 0 | 14800
2 | 3:17.26 | 3:15.73 | 14801 | 29498
3 | 6:33.24 | 3:23.26 | 29499 | 44749
4 | 9:56.50 | 7:49.28 | 44750 | 79952
5 | 17:46.03 | 5:52.37 | 79953 | 106389
6 | 23:38.40 | 5:17.21 | 106390 | 130185
7 | 28:55.61 | 3:35.32 | 130186 | 146342
8 | 32:31.18 | 3:45.63 | 146343 | 163280
9 | 36:17.06 | 3:13.66 | 163281 | 177821
10 | 39:30.72 | 14:29.07 | 177822 | 243003
11 | 54:00.04 | 9:30.16 | 243004 | 285769


Характеристики диапазона извлечения и сообщения об ошибках

Выбранный диапазон

Имя файла E:\Caravan(1971)\CD2\Caravan - In the Land of Grey and Pink (CD 2).wav

Пиковый уровень 98.8 %
Качество диапазона 99.9 %
CRC теста AEAB79BB
CRC копии AEAB79BB
Копирование… OK


AccurateRip: сводка

Трек 1 нет в базе данных
Трек 2 нет в базе данных
Трек 3 нет в базе данных
Трек 4 нет в базе данных
Трек 5 нет в базе данных
Трек 6 нет в базе данных
Трек 7 нет в базе данных
Трек 8 нет в базе данных
Трек 9 нет в базе данных
Трек 10 нет в базе данных
Трек 11 нет в базе данных

Ошибок не произошло

Конец отчёта

foobar2000 1.1.18 / Dynamic Range Meter 1.1.1
log date: 2013-02-17 18:06:08

––––––––––––––––––––––––––––––––––––––––
Analyzed: Caravan / In the Land of Grey and Pink (CD 2)
––––––––––––––––––––––––––––––––––––––––

DR Peak RMS Duration Track
––––––––––––––––––––––––––––––––––––––––
DR15 -0.10 dB -17.16 dB 3:17 01-Aristocracy
DR11 -0.55 dB -17.16 dB 3:16 02-It doesn't take a lot
DR13 -0.10 dB -15.06 dB 3:23 03-Love to love you (And tonight pigs will fly) extended version
DR14 -0.10 dB -17.35 dB 7:49 04-It's likely to have a name next week ('Winter wine' instrumental demo)
DR13 -0.10 dB -14.98 dB 5:52 05-Nigel blows a tune (first version)
DR15 -0.10 dB -16.61 dB 5:17 06-Group girl ('Golf girl' first version)
DR7 -2.79 dB -11.62 dB 3:35 07-Love song without flute
DR9 -1.86 dB -11.26 dB 3:46 08-In the land of grey and pink
DR8 -2.35 dB -11.15 dB 3:14 09-Love to love you (And tonight pigs will fly)
DR9 -2.35 dB -13.30 dB 14:29 10-Noine
DR8 -2.35 dB -12.98 dB 9:30 11-Feelin', Reelin', Squealin'
––––––––––––––––––––––––––––––––––––––––

Number of tracks: 11
Official DR value: DR11

Samplerate: 44100 Hz
Channels: 2
Bits per sample: 16
Bitrate: 745 kbps
Codec: FLAC

Caravan - In the Land of Grey and Pink (1971) [2011, 40th Anniversary Deluxe Edition, 2CD+DVD] Re-up

Tracklist DVD:

(5.1 Surround and New Stereo Mixes by Steven Wilson, 2011)
1. Golf Girl
2. Winter Wine
3. Love To Love You (And Tonight Pigs Will Fly)
4. In The Land Of Grey And Pink
5. Nine Feet Underground
6. Frozen Rose (I Don't Know Its Name Alias The Word)

Visual Content:
(Beat Club TV Session 1971)
1. Golf Girl
2. Winter Wine

Title: Caravan 1971 - In the Land of Grey and Pink DVD
Size: 3.76 Gb ( 3 946 510,00 KBytes ) - DVD-5
Enabled regions: 1, 2, 3, 4, 5, 6, 7, 8

VTS_01 :
Play Length: 00:00:15
Video: NTSC 16:9 (720x480) VBR, Auto Letterboxed

VTS_02 :
Play Length: 00:49:51+{00:05:04}+{00:07:40}+{00:03:05}+{00:05:01}+{00:22:46}+{00:06:11}
Video: NTSC 16:9 (720x480) VBR, Auto Letterboxed
Audio:
English (Dolby AC3, 6 ch)

VTS_03 :
Play Length: 00:43:39+{00:05:04}+{00:07:40}+{00:03:06}+{00:05:01}+{00:22:46}
Video: NTSC 16:9 (720x480) VBR, Auto Letterboxed
Audio:
English (Dolby AC3, 2 ch)

VTS_04 :
Play Length: 00:04:21+{00:04:21}
Video: NTSC 4:3 (720x480) VBR
Audio:
English (Dolby AC3, 2 ch)

VTS_05 :
Play Length: 00:06:59+{00:06:59}
Video: NTSC 4:3 (720x480) VBR
Audio:
English (Dolby AC3, 2 ch)


Caravan - In the Land of Grey and Pink (1971) [2011, 40th Anniversary Deluxe Edition, 2CD+DVD] Re-up

Caravan - In the Land of Grey and Pink (1971) [2011, 40th Anniversary Deluxe Edition, 2CD+DVD] Re-up

Caravan - In the Land of Grey and Pink (1971) [2011, 40th Anniversary Deluxe Edition, 2CD+DVD] Re-up

Caravan - In the Land of Grey and Pink (1971) [2011, 40th Anniversary Deluxe Edition, 2CD+DVD] Re-up

Caravan - In the Land of Grey and Pink (1971) [2011, 40th Anniversary Deluxe Edition, 2CD+DVD] Re-up

All thanks go to Fragile59

Download Caravan - In the Land of Grey and Pink (1971) [2011, 40th Anniversary Deluxe Edition, 2CD+DVD]: