Subcategories

Carlos Perón - 4 Studio Albums (1981-1988) [Reissue 2006]

Posted By: gribovar
Carlos Perón - 4 Studio Albums (1981-1988) [Reissue 2006]

Carlos Perón - 4 Studio Albums (1981-1988) [Reissue 2006]
EAC Rip | FLAC (image+.cue+log) - 2,14 GB | MP3 CBR 320 kbps (LAME 3.93) - 707 MB | Covers - 190 MB
Genre: Electronic, Ambient, Experimental | RAR 3% Rec. | Label: SPV/Revisited Records

Carlos Perón was the founder of globally renowned cult act Yello, initiator of the world’s first ever video clip, ‘The Evening’s Young’ from the group’s second album “Claro Que Si”. Following the fifth Yello album “You Gotta Say Yes To Another Excess”, which was released as the world’s first ever Compact Disc in 1983, Carlos left the group to embark on an ambitious solo career.
Impersonator I (1981) [Reissue 2006]. Impersonator I was originally released in 1981 when Carlos Perón was still a member of the band Yello. Remastered, with two bonus tracks. His first solo album represents the extreme desire to conduct daring experiments, to achieve stylistic variety and musical intensity while at the same time it is an example of Monsieur Perón's bizarre sense of humour. Impersonator I was the foundation for the constantly expanding Impersonator series. Long since out of print, this album is once again available completely remastered for the first time.

Die Schöpfung Der Welt Oder 7 Tage Gottes (1984) [Reissue 2006]. Originally released in 1984, this album is the first collaboration between Carlos Perón and Swiss actor Peter Ehrlich from the Viennese Burg theatre. The seven part Genesis, impressively narrated by Ehrlich, was composed by Perón as an oratorio for Yamaha CX 5 Computer, Kurzweil 250 and Oberheim Xpander.

Gold For Iron (1988) [Reissue 2006]. 1988 saw the release of Gold For Iron, which was the most lavish pop album to date by Carlos Perón. Ranging from the legendary Motorman to more subtle pop songs, such as The Spanish Fly, enriched with spoken word samples by Salvador Dali, influences from the Far East (Matin Indien), straight and demanding dance tracks (Los Alamos), and the industrial finale that resembles a symphony, consisting of The Sketch and The Thrash. The album can hardly be surpassed in its vibrancy and wealth of ideas. Remastered, with seven bonus tracks, plus a bonus cd featuring remixes of the song Motorman.

Carlos Perón - 4 Studio Albums (1981-1988) [Reissue 2006]

Carlos Perón - Impersonator I (1981) [Reissue 2006]
EAC Rip | FLAC (image+.cue+log) - 323 MB | MP3 CBR 320 kbps (LAME 3.93) - 115 MB | Covers - 36 MB
Genre: Electronic, Ambient, Experimental | RAR 3% Rec. | Label: SPV/Revisited Records (SPV 305002 CD)

Tracklist:
01. Her Head Is Bräkin Intu Foör
02. Rocky
03. Impersonator
04. Méthode
05. Dog Muzzles
06. Einsatz
07. Infiltration
08. Ordal
09. Oui, Oui
10. Frigorex
11. The Winner
12. Dom Perdro's Chamber
13. Quadra
14. Light Conversation
15. Bust Food
16. Méthode Total
17. Devin T. Race
18. The Princess Side Saddle
19. Ricky
20. Frigorex (Kelvin Maximix)
21. Her Head Is Bräkin Intu Foör (Kelvin Maximix)

Total time: 48:58

Exact Audio Copy V0.99 prebeta 4 from 23. January 2008

EAC extraction logfile from 4. August 2008, 18:15

Carlos Peron / Impersonator

Used drive : _NEC DVD_RW ND-4570A Adapter: 1 ID: 0

Read mode : Secure
Utilize accurate stream : Yes
Defeat audio cache : Yes
Make use of C2 pointers : No

Read offset correction : 48
Overread into Lead-In and Lead-Out : No
Fill up missing offset samples with silence : Yes
Delete leading and trailing silent blocks : No
Null samples used in CRC calculations : Yes
Used interface : Native Win32 interface for Win NT & 2000

Used output format : User Defined Encoder
Selected bitrate : 1024 kBit/s
Quality : High
Add ID3 tag : No
Command line compressor : C:\Program Files\Exact Audio Copy\FLAC\FLAC.EXE
Additional command line options : -6 -V -T "ARTIST=%a" -T "TITLE=%t" -T "ALBUM=%g" -T "DATE=%y" -T "TRACKNUMBER=%n" -T "GENRE=%m" -T "COMMENT=%e" %s -o %d


TOC of the extracted CD

Track | Start | Length | Start sector | End sector
––––––––––––––––––––––––––––-
1 | 0:00.00 | 2:20.12 | 0 | 10511
2 | 2:20.12 | 0:37.73 | 10512 | 13359
3 | 2:58.10 | 4:02.37 | 13360 | 31546
4 | 7:00.47 | 1:21.05 | 31547 | 37626
5 | 8:21.52 | 1:35.08 | 37627 | 44759
6 | 9:56.60 | 3:39.55 | 44760 | 61239
7 | 13:36.40 | 5:02.52 | 61240 | 83941
8 | 18:39.17 | 0:17.23 | 83942 | 85239
9 | 18:56.40 | 0:32.10 | 85240 | 87649
10 | 19:28.50 | 3:52.12 | 87650 | 105061
11 | 23:20.62 | 1:38.43 | 105062 | 112454
12 | 24:59.30 | 4:42.30 | 112455 | 133634
13 | 29:41.60 | 0:47.67 | 133635 | 137226
14 | 30:29.52 | 5:51.38 | 137227 | 163589
15 | 36:21.15 | 0:18.05 | 163590 | 164944
16 | 36:39.20 | 2:10.22 | 164945 | 174716
17 | 38:49.42 | 0:33.23 | 174717 | 177214
18 | 39:22.65 | 0:31.37 | 177215 | 179576
19 | 39:54.27 | 0:52.07 | 179577 | 183483
20 | 40:46.34 | 4:00.73 | 183484 | 201556
21 | 44:47.32 | 4:10.23 | 201557 | 220329


Range status and errors

Selected range

Filename E:\раздача\Carlos Peron\Impersonator I\Carlos Peron - Impersonator.wav

Peak level 99.9 %
Range quality 100.0 %
Test CRC 09E0CC8E
Copy CRC 09E0CC8E
Copy OK

No errors occurred


AccurateRip summary

Track 1 not present in database
Track 2 not present in database
Track 3 not present in database
Track 4 not present in database
Track 5 not present in database
Track 6 not present in database
Track 7 not present in database
Track 8 not present in database
Track 9 not present in database
Track 10 not present in database
Track 11 not present in database
Track 12 not present in database
Track 13 not present in database
Track 14 not present in database
Track 15 not present in database
Track 16 not present in database
Track 17 not present in database
Track 18 not present in database
Track 19 not present in database
Track 20 not present in database
Track 21 not present in database

None of the tracks are present in the AccurateRip database

End of status report

[CUETools log; Date: 03.05.2015 14:18:25; Version: 2.1.4]
[CTDB TOCID: 1J3N8xNqEGmRZEMw7QYX.OpY7WU-] found.
Track | CTDB Status
1 | (1/1) Accurately ripped
2 | (1/1) Accurately ripped
3 | (1/1) Accurately ripped
4 | (1/1) Accurately ripped
5 | (1/1) Accurately ripped
6 | (1/1) Accurately ripped
7 | (1/1) Accurately ripped
8 | (1/1) Accurately ripped
9 | (1/1) Accurately ripped
10 | (1/1) Accurately ripped
11 | (1/1) Accurately ripped
12 | (1/1) Accurately ripped
13 | (1/1) Accurately ripped
14 | (1/1) Accurately ripped
15 | (1/1) Accurately ripped
16 | (1/1) Accurately ripped
17 | (1/1) Accurately ripped
18 | (1/1) Accurately ripped
19 | (1/1) Accurately ripped
20 | (1/1) Accurately ripped
21 | (1/1) Accurately ripped
[AccurateRip ID: 0024c4c8-02340eb4-fc0b7915] found.
Track [ CRC | V2 ] Status
01 [5b070bfd|f95ceee8] (3+0/3) Accurately ripped
02 [1e36acc9|dfcfaad1] (3+0/3) Accurately ripped
03 [00db98c0|05f65b31] (3+0/3) Accurately ripped
04 [aed3da0c|84b93e60] (3+0/3) Accurately ripped
05 [35a7e8cb|73e97877] (3+0/3) Accurately ripped
06 [5792e6d6|54ff59b6] (3+0/3) Accurately ripped
07 [2ef0c46e|b29b1494] (3+0/3) Accurately ripped
08 [56f32c22|81237b8d] (3+0/3) Accurately ripped
09 [9f938bc3|7c929b5a] (3+0/3) Accurately ripped
10 [fac3e27d|7c7448e8] (3+0/3) Accurately ripped
11 [b853793f|4ebd61e2] (3+0/3) Accurately ripped
12 [71ada95e|596226d6] (3+0/3) Accurately ripped
13 [eac55f88|e648be41] (3+0/3) Accurately ripped
14 [263012c9|942dddb7] (3+0/3) Accurately ripped
15 [71b58545|6ab3d892] (3+0/3) Accurately ripped
16 [3c0c285a|ae758b5b] (3+0/3) Accurately ripped
17 [3202c394|2ca3c856] (3+0/3) Accurately ripped
18 [7e8b06cf|41ff3629] (3+0/3) Accurately ripped
19 [d7942f69|9380c44b] (3+0/3) Accurately ripped
20 [25b4d517|333a3d05] (3+0/3) Accurately ripped
21 [719c2dfb|f5ee6252] (3+0/3) Accurately ripped

Track Peak [ CRC32 ] [W/O NULL] [ LOG ]
– 99,9 [09E0CC8E] [9E3DDD37] CRC32
01 99,3 [E9186911] [1C891174]
02 99,1 [60D466FD] [8D220885]
03 98,0 [842D4163] [283ECCC9]
04 94,5 [9446F235] [5027CD3B]
05 96,1 [413005AC] [159B23D8]
06 95,8 [69333290] [F12F8921]
07 95,0 [4A5778BD] [D9B2E720]
08 94,8 [5A1DAF74] [D13DC800]
09 95,4 [0D45554C] [5489CE6E]
10 96,1 [540FC27A] [F87C9984]
11 89,9 [8CCD6121] [889B5921]
12 90,2 [B70A0FE0] [3DEA35FB]
13 89,6 [EE6380EB] [EA63FD85]
14 91,1 [E44CB9C8] [BF75496E]
15 88,7 [FFC74167] [82A27599]
16 88,0 [0FFB8FBD] [3A7FC761]
17 89,0 [F64B2427] [0602E45B]
18 89,5 [B896113C] [1D9D2762]
19 89,1 [A9EBDF6B] [DFC4B3CA]
20 99,9 [F93B36FD] [AED2DF88]
21 99,9 [3A66BD6F] [8A275A62]

Carlos Perón - 4 Studio Albums (1981-1988) [Reissue 2006]

Carlos Perón - Nothing Is True; Everything Is Permitted (1983) [Reissue 2006]
EAC Rip | FLAC (image+.cue+log) - 717 MB | MP3 CBR 320 kbps (LAME 3.93) - 242 MB | Covers - 34 MB
Genre: Electronic, Ambient, Experimental | RAR 3% Rec. | Label: SPV/Revisited Records (SPV 305012 DCD)

CD 1 Tracklist (45 RPM Worldcut Version):
01. Rêve De Mer
02. Eugenik
03. Golden Shower
04. Sling Schidji
05. Nothing Is True
06. Gee Gee Fazzi
07. Go To Hell
08. Toasted Lunch
09. Comba-Sou
10. Touristes
11. Normenausschuss
12. Kir Royal
13. Blue Lupin

Bonustracks:
14. Romantic Rubber
15. Lust Of Death
16. Hallenmetallen
17. Big Fat Cadillac
18. Arty Party

Total time: 54:44

CD 2 Tracklist (33 RPM New Beat Version):
01. Rêve De Mer
02. Eugenik
03. Golden Shower
04. Sling Schidji
05. Nothing Is True
06. Gee Gee Fazzi
07. Go To Hell
08. Toasted Lunch
09. Comba-Sou
10. Touristes
11. Normenausschuss
12. Kir Royal
13. Blue Lupin

Total time: 48:13

Exact Audio Copy V0.99 prebeta 4 from 23. January 2008

EAC extraction logfile from 6. August 2008, 17:52

Carlos Peron / Nothing Is True; Everything Is Permitted (Disc 1)

Used drive : _NEC DVD_RW ND-4570A Adapter: 1 ID: 0

Read mode : Secure
Utilize accurate stream : Yes
Defeat audio cache : Yes
Make use of C2 pointers : No

Read offset correction : 48
Overread into Lead-In and Lead-Out : No
Fill up missing offset samples with silence : Yes
Delete leading and trailing silent blocks : No
Null samples used in CRC calculations : Yes
Used interface : Native Win32 interface for Win NT & 2000

Used output format : User Defined Encoder
Selected bitrate : 1024 kBit/s
Quality : High
Add ID3 tag : No
Command line compressor : C:\Program Files\Exact Audio Copy\FLAC\FLAC.EXE
Additional command line options : -6 -V -T "ARTIST=%a" -T "TITLE=%t" -T "ALBUM=%g" -T "DATE=%y" -T "TRACKNUMBER=%n" -T "GENRE=%m" -T "COMMENT=%e" %s -o %d


TOC of the extracted CD

Track | Start | Length | Start sector | End sector
––––––––––––––––––––––––––––-
1 | 0:00.00 | 3:48.62 | 0 | 17161
2 | 3:48.62 | 2:22.63 | 17162 | 27874
3 | 6:11.50 | 1:28.47 | 27875 | 34521
4 | 7:40.22 | 2:15.65 | 34522 | 44711
5 | 9:56.12 | 3:16.48 | 44712 | 59459
6 | 13:12.60 | 3:23.40 | 59460 | 74724
7 | 16:36.25 | 2:04.70 | 74725 | 84094
8 | 18:41.20 | 0:37.55 | 84095 | 86924
9 | 19:19.00 | 2:36.35 | 86925 | 98659
10 | 21:55.35 | 4:25.02 | 98660 | 118536
11 | 26:20.37 | 4:34.73 | 118537 | 139159
12 | 30:55.35 | 3:12.72 | 139160 | 153631
13 | 34:08.32 | 1:49.30 | 153632 | 161836
14 | 35:57.62 | 4:27.25 | 161837 | 181886
15 | 40:25.12 | 2:51.40 | 181887 | 194751
16 | 43:16.52 | 5:16.65 | 194752 | 218516
17 | 48:33.42 | 2:59.73 | 218517 | 232014
18 | 51:33.40 | 3:10.10 | 232015 | 246274


Range status and errors

Selected range

Filename E:\раздача\Carlos Peron\Nothing is True\CD 1\Carlos Peron - Nothing Is True; Everything Is Permitted (Disc 1).wav

Peak level 100.0 %
Range quality 100.0 %
Test CRC 6316B28A
Copy CRC 6316B28A
Copy OK

No errors occurred


AccurateRip summary

Track 1 not present in database
Track 2 not present in database
Track 3 not present in database
Track 4 not present in database
Track 5 not present in database
Track 6 not present in database
Track 7 not present in database
Track 8 not present in database
Track 9 not present in database
Track 10 not present in database
Track 11 not present in database
Track 12 not present in database
Track 13 not present in database
Track 14 not present in database
Track 15 not present in database
Track 16 not present in database
Track 17 not present in database
Track 18 not present in database

None of the tracks are present in the AccurateRip database

End of status report

[CUETools log; Date: 03.05.2015 14:34:43; Version: 2.1.4]
[CTDB TOCID: 6P_nUUkFvr.oy1cfjjObFitKk0c-] found.
Track | CTDB Status
1 | (1/1) Accurately ripped
2 | (1/1) Accurately ripped
3 | (1/1) Accurately ripped
4 | (1/1) Accurately ripped
5 | (1/1) Accurately ripped
6 | (1/1) Accurately ripped
7 | (1/1) Accurately ripped
8 | (1/1) Accurately ripped
9 | (1/1) Accurately ripped
10 | (1/1) Accurately ripped
11 | (1/1) Accurately ripped
12 | (1/1) Accurately ripped
13 | (1/1) Accurately ripped
14 | (1/1) Accurately ripped
15 | (1/1) Accurately ripped
16 | (1/1) Accurately ripped
17 | (1/1) Accurately ripped
18 | (1/1) Accurately ripped
[AccurateRip ID: 00212f1c-01c168d4-070cd312] found.
Track [ CRC | V2 ] Status
01 [7a8481db|a37b92c0] (2+0/2) Accurately ripped
02 [761dd7e5|9d0b32b9] (2+0/2) Accurately ripped
03 [35bd2461|173b5f82] (2+0/2) Accurately ripped
04 [615f4f5b|9e9a2131] (2+0/2) Accurately ripped
05 [c9edc243|6d583ef7] (2+0/2) Accurately ripped
06 [96398358|ede44dd9] (2+0/2) Accurately ripped
07 [c376474a|5d3784ce] (2+0/2) Accurately ripped
08 [71bd69c7|0d0e3325] (2+0/2) Accurately ripped
09 [fb3d861d|bddf9a23] (2+0/2) Accurately ripped
10 [5c0cb33a|89068f11] (2+0/2) Accurately ripped
11 [f8606caa|edd08628] (2+0/2) Accurately ripped
12 [38408980|c1e40fad] (2+0/2) Accurately ripped
13 [2511d166|61ac096e] (2+0/2) Accurately ripped
14 [2c9a61fd|125f0bf1] (2+0/2) Accurately ripped
15 [c5944f7a|4c493132] (2+0/2) Accurately ripped
16 [ec5d45bf|540c1168] (2+0/2) Accurately ripped
17 [5347bea7|0ba8933a] (2+0/2) Accurately ripped
18 [271c7992|42261e78] (2+0/2) Accurately ripped

Track Peak [ CRC32 ] [W/O NULL] [ LOG ]
– 99,9 [6316B28A] [5617F875] CRC32
01 99,9 [24815312] [2025AAAC]
02 94,7 [3ECD6E15] [BF1AEE6C]
03 96,8 [065C60BF] [9C83A775]
04 96,2 [AA436F7A] [B547200E]
05 96,9 [E8784F4F] [AC191B86]
06 97,7 [46AF9B92] [99545EFF]
07 97,3 [366AAD71] [0DAF4E02]
08 95,3 [AF2E6E0F] [7726C594]
09 96,4 [52C313E0] [09FCCFB1]
10 95,9 [023E65FC] [A716E812]
11 99,9 [5F142C4D] [6F0EB8BB]
12 96,2 [F440FD9C] [BF9C440C]
13 95,7 [A8AA4F84] [5BC74026]
14 93,9 [55F383AF] [A3BAC6CA]
15 93,0 [416705CD] [BB009DB7]
16 92,7 [1BBFA80E] [A36F45B1]
17 93,2 [572BB4D6] [EAB7182C]
18 96,1 [2CAF63DF] [45000F7E]

Exact Audio Copy V0.99 prebeta 4 from 23. January 2008

EAC extraction logfile from 6. August 2008, 18:15

Carlos Peron / Nothing Is True; Everything Is Permitted (Disc 2)

Used drive : _NEC DVD_RW ND-4570A Adapter: 1 ID: 0

Read mode : Secure
Utilize accurate stream : Yes
Defeat audio cache : Yes
Make use of C2 pointers : No

Read offset correction : 48
Overread into Lead-In and Lead-Out : No
Fill up missing offset samples with silence : Yes
Delete leading and trailing silent blocks : No
Null samples used in CRC calculations : Yes
Used interface : Native Win32 interface for Win NT & 2000

Used output format : User Defined Encoder
Selected bitrate : 1024 kBit/s
Quality : High
Add ID3 tag : No
Command line compressor : C:\Program Files\Exact Audio Copy\FLAC\FLAC.EXE
Additional command line options : -6 -V -T "ARTIST=%a" -T "TITLE=%t" -T "ALBUM=%g" -T "DATE=%y" -T "TRACKNUMBER=%n" -T "GENRE=%m" -T "COMMENT=%e" %s -o %d


TOC of the extracted CD

Track | Start | Length | Start sector | End sector
––––––––––––––––––––––––––––-
1 | 0:00.00 | 5:09.02 | 0 | 23176
2 | 5:09.02 | 3:10.38 | 23177 | 37464
3 | 8:19.40 | 1:58.65 | 37465 | 46379
4 | 10:18.30 | 3:06.30 | 46380 | 60359
5 | 13:24.60 | 4:23.62 | 60360 | 80146
6 | 17:48.47 | 4:35.30 | 80147 | 100801
7 | 22:24.02 | 2:45.13 | 100802 | 113189
8 | 25:09.15 | 0:50.72 | 113190 | 117011
9 | 26:00.12 | 3:31.38 | 117012 | 132874
10 | 29:31.50 | 5:56.15 | 132875 | 159589
11 | 35:27.65 | 6:05.70 | 159590 | 187034
12 | 41:33.60 | 4:18.02 | 187035 | 206386
13 | 45:51.62 | 2:21.15 | 206387 | 216976


Range status and errors

Selected range

Filename E:\раздача\Carlos Peron\Nothing is True\CD 2\Carlos Peron - Nothing Is True; Everything Is Permitted (Disc 2).wav

Peak level 99.9 %
Range quality 100.0 %
Test CRC D738AC01
Copy CRC D738AC01
Copy OK

No errors occurred


AccurateRip summary

Track 1 not present in database
Track 2 not present in database
Track 3 not present in database
Track 4 not present in database
Track 5 not present in database
Track 6 not present in database
Track 7 not present in database
Track 8 not present in database
Track 9 not present in database
Track 10 not present in database
Track 11 not present in database
Track 12 not present in database
Track 13 not present in database

None of the tracks are present in the AccurateRip database

End of status report

[CUETools log; Date: 03.05.2015 14:35:07; Version: 2.1.4]
[CTDB TOCID: DxtnBjyFDZXxW4eMZEDaUtYeDX4-] found.
Track | CTDB Status
1 | (1/1) Accurately ripped
2 | (1/1) Accurately ripped
3 | (1/1) Accurately ripped
4 | (1/1) Accurately ripped
5 | (1/1) Accurately ripped
6 | (1/1) Accurately ripped
7 | (1/1) Accurately ripped
8 | (1/1) Accurately ripped
9 | (1/1) Accurately ripped
10 | (1/1) Accurately ripped
11 | (1/1) Accurately ripped
12 | (1/1) Accurately ripped
13 | (1/1) Accurately ripped
[AccurateRip ID: 00169ab5-00e272f3-940b4d0d] found.
Track [ CRC | V2 ] Status
01 [8b339c65|0900e10f] (2+0/2) Accurately ripped
02 [07ce65be|e41db77d] (2+0/2) Accurately ripped
03 [fd6b08e8|95b67089] (2+0/2) Accurately ripped
04 [5b0d9aef|ddc50059] (2+0/2) Accurately ripped
05 [52275d0a|313d55dc] (2+0/2) Accurately ripped
06 [39535cf8|99ffbea9] (2+0/2) Accurately ripped
07 [253810c0|b68c3de9] (2+0/2) Accurately ripped
08 [536b0560|aebdf125] (2+0/2) Accurately ripped
09 [b7268254|f50cd5fa] (2+0/2) Accurately ripped
10 [a3732914|42abf524] (2+0/2) Accurately ripped
11 [896371ee|76b51fa5] (2+0/2) Accurately ripped
12 [0c09f184|df5f4762] (2+0/2) Accurately ripped
13 [f6826a37|5e8cf021] (2+0/2) Accurately ripped

Track Peak [ CRC32 ] [W/O NULL] [ LOG ]
– 99,9 [D738AC01] [BE0B9E52] CRC32
01 99,9 [B9271415] [5D3ECF2B]
02 99,8 [1ABDEFA9] [03ED5BAB]
03 99,7 [63F40498] [F48B5935]
04 99,8 [F444F9E0] [CBD6AC29]
05 99,8 [4D3F1673] [A918F1B1]
06 99,9 [59E4F85D] [6ED84A78]
07 99,9 [00DA2986] [1F482AEA]
08 99,8 [4D552E38] [5D1ED11A]
09 99,8 [1DCCC795] [6A51687C]
10 99,8 [B026B491] [E58FD75C]
11 99,9 [342D9FB3] [39028694]
12 99,9 [C21A9502] [A10C45F2]
13 99,9 [1AB1B2B8] [76B5D407]

Carlos Perón - 4 Studio Albums (1981-1988) [Reissue 2006]

Carlos Perón - Die Schöpfung Der Welt Oder 7 Tage Gottes (1984) [Reissue 2006]
EAC Rip | FLAC (image+.cue+log) - 199 MB | MP3 CBR 320 kbps (LAME 3.93) - 81 MB | Covers - 22 MB
Genre: Electronic, Ambient, Experimental | RAR 3% Rec. | Label: SPV/Revisited Records (SPV 305022 CD)

Tracklist:
01. Der Erste Tag Der Schöpfung
02. Der Zweite Tag Der Schöpfung
03. Der Dritte Tag Der Schöpfung
04. Der Vierte Tag Der Schöpfung
05. Der Fünfte Tag Der Schöpfung
06. Der Sechste Tag Der Schöpfung
07. Der Siebente Tag Der Schöpfung

Total time: 34:34

Exact Audio Copy V0.99 prebeta 4 from 23. January 2008

EAC extraction logfile from 6. August 2008, 18:48

Carlos Peron / Die Schopfung der Welt oder Sieben Tage Gottes

Used drive : _NEC DVD_RW ND-4570A Adapter: 1 ID: 0

Read mode : Secure
Utilize accurate stream : Yes
Defeat audio cache : Yes
Make use of C2 pointers : No

Read offset correction : 48
Overread into Lead-In and Lead-Out : No
Fill up missing offset samples with silence : Yes
Delete leading and trailing silent blocks : No
Null samples used in CRC calculations : Yes
Used interface : Native Win32 interface for Win NT & 2000

Used output format : User Defined Encoder
Selected bitrate : 1024 kBit/s
Quality : High
Add ID3 tag : No
Command line compressor : C:\Program Files\Exact Audio Copy\FLAC\FLAC.EXE
Additional command line options : -6 -V -T "ARTIST=%a" -T "TITLE=%t" -T "ALBUM=%g" -T "DATE=%y" -T "TRACKNUMBER=%n" -T "GENRE=%m" -T "COMMENT=%e" %s -o %d


TOC of the extracted CD

Track | Start | Length | Start sector | End sector
––––––––––––––––––––––––––––-
1 | 0:00.00 | 4:36.67 | 0 | 20766
2 | 4:36.67 | 4:55.28 | 20767 | 42919
3 | 9:32.20 | 4:27.10 | 42920 | 62954
4 | 13:59.30 | 4:58.24 | 62955 | 85328
5 | 18:57.54 | 5:24.23 | 85329 | 109651
6 | 24:22.02 | 5:45.70 | 109652 | 135596
7 | 30:07.72 | 4:26.08 | 135597 | 155554


Range status and errors

Selected range

Filename E:\раздача\Carlos Peron\Die Schopfung Der Welt Oder 7 Tage Gottes\Carlos Peron - Die Schopfung der Welt oder Sieben Tage Gottes.wav

Peak level 96.7 %
Range quality 99.9 %
Test CRC 0996E199
Copy CRC 0996E199
Copy OK

No errors occurred


AccurateRip summary

Track 1 not present in database
Track 2 not present in database
Track 3 not present in database
Track 4 not present in database
Track 5 not present in database
Track 6 not present in database
Track 7 not present in database

None of the tracks are present in the AccurateRip database

End of status report

[CUETools log; Date: 03.05.2015 14:40:28; Version: 2.1.4]
[CTDB TOCID: eOMarsI9FCZSLLmHVOWAp5GWEB8-] found.
Track | CTDB Status
1 | (1/1) Accurately ripped
2 | (1/1) Accurately ripped
3 | (1/1) Accurately ripped
4 | (1/1) Accurately ripped
5 | (1/1) Accurately ripped
6 | (1/1) Accurately ripped
7 | (1/1) Accurately ripped
[AccurateRip ID: 000959a7-00387643-5f081a07] found.
Track [ CRC | V2 ] Status
01 [7573a7e9|cf1b104e] (2+0/2) Accurately ripped
02 [d7b7af9f|80b0ee97] (2+0/2) Accurately ripped
03 [9150e519|dc66f472] (2+0/2) Accurately ripped
04 [9ee4a7a5|9cb9d684] (2+0/2) Accurately ripped
05 [7c1cc501|f698a6dc] (2+0/2) Accurately ripped
06 [240cd22a|db8fbd6b] (2+0/2) Accurately ripped
07 [f2d74975|1f38e0aa] (2+0/2) Accurately ripped

Track Peak [ CRC32 ] [W/O NULL] [ LOG ]
– 96,7 [0996E199] [C339C423] CRC32
01 96,4 [FF55027E] [154A5941]
02 96,5 [60690F94] [5EF6D29E]
03 96,7 [7B37ADED] [D5B6078D]
04 96,7 [52C49529] [C2DDBECA]
05 94,8 [CAEAB096] [E044A1E8]
06 96,5 [7A40E885] [F3F8F799]
07 96,0 [D600D4CA] [F560B076]

Carlos Perón - 4 Studio Albums (1981-1988) [Reissue 2006]

Carlos Perón - Gold For Iron (1988) [Reissue 2006]
EAC Rip | FLAC (image+.cue+log) - 905 MB | MP3 CBR 320 kbps (LAME 3.93) - 269 MB | Covers - 98 MB
Genre: Electronic, Ambient, Experimental | RAR 3% Rec. | Label: SPV/Revisited Records (SPV 035032 DCD-E)

CD 1 Tracklist (Gold For Iron ):
01. Motorman
02. Afro Infernal
03. We - U - Wee - Ah!
04. Los Alamos
05. Be With You
06. The Spanish Fly
07. Matin Indien
08. The Catherina Ho
09. Espace Ouvert
10. The Sketch
11. The Thrash

Bonustracks:
12. Los Alamos (Cutmix)
13. Be With You (Stringmix)
14. The Spanish Fly (Maximix)
15. Afro Infernal (Longmix)
16. By By Rock Hudson
17. The One
18. The Caterina Ho (Singlemix)

Total time: 01:12:27

CD 2 Tracklist (The Motorman Remixes):
01. Motorman (Kadach Racing Goes Bahrain Mix)
02. Motorman (Kadach Racing Rocks Europe Mix)
03. Motorman (Sponsor Mix)
04. Motorman (Perón & Sorroth Metal Mix)
05. Motorman (Team Engineer mix)
06. Motorman In Monza
07. Motorman (Original Long Mix From LP 'Gold For Iron')
08. After The Victory

Total time: 41:52

Exact Audio Copy V0.99 prebeta 4 from 23. January 2008

EAC extraction logfile from 17. September 2008, 21:58

Carlos Peron / Gold for Iron (Disc 1)

Used drive : _NEC DVD_RW ND-4570A Adapter: 1 ID: 0

Read mode : Secure
Utilize accurate stream : Yes
Defeat audio cache : Yes
Make use of C2 pointers : No

Read offset correction : 48
Overread into Lead-In and Lead-Out : No
Fill up missing offset samples with silence : Yes
Delete leading and trailing silent blocks : No
Null samples used in CRC calculations : Yes
Used interface : Native Win32 interface for Win NT & 2000

Used output format : User Defined Encoder
Selected bitrate : 1024 kBit/s
Quality : High
Add ID3 tag : No
Command line compressor : C:\Program Files\Exact Audio Copy\FLAC\FLAC.EXE
Additional command line options : -6 -V -T "ARTIST=%a" -T "TITLE=%t" -T "ALBUM=%g" -T "DATE=%y" -T "TRACKNUMBER=%n" -T "GENRE=%m" -T "COMMENT=%e" %s -o %d


TOC of the extracted CD

Track | Start | Length | Start sector | End sector
––––––––––––––––––––––––––––-
1 | 0:00.00 | 3:53.67 | 0 | 17541
2 | 3:53.67 | 3:48.73 | 17542 | 34714
3 | 7:42.65 | 4:04.55 | 34715 | 53069
4 | 11:47.45 | 3:56.20 | 53070 | 70789
5 | 15:43.65 | 4:16.47 | 70790 | 90036
6 | 20:00.37 | 3:37.73 | 90037 | 106384
7 | 23:38.35 | 4:52.35 | 106385 | 128319
8 | 28:30.70 | 4:53.30 | 128320 | 150324
9 | 33:24.25 | 4:30.17 | 150325 | 170591
10 | 37:54.42 | 1:41.30 | 170592 | 178196
11 | 39:35.72 | 4:17.60 | 178197 | 197531
12 | 43:53.57 | 3:53.20 | 197532 | 215026
13 | 47:47.02 | 2:59.15 | 215027 | 228466
14 | 50:46.17 | 6:04.38 | 228467 | 255804
15 | 56:50.55 | 4:13.55 | 255805 | 274834
16 | 61:04.35 | 3:49.65 | 274835 | 292074
17 | 64:54.25 | 3:55.20 | 292075 | 309719
18 | 68:49.45 | 3:37.37 | 309720 | 326031


Range status and errors

Selected range

Filename E:\раздача\gold for iron\1\Carlos Peron - Gold for Iron (Disc 1).wav

Peak level 100.0 %
Range quality 100.0 %
Test CRC 03819DAC
Copy CRC 03819DAC
Copy OK

No errors occurred


AccurateRip summary

Track 1 not present in database
Track 2 not present in database
Track 3 not present in database
Track 4 not present in database
Track 5 not present in database
Track 6 not present in database
Track 7 not present in database
Track 8 not present in database
Track 9 not present in database
Track 10 not present in database
Track 11 not present in database
Track 12 not present in database
Track 13 not present in database
Track 14 not present in database
Track 15 not present in database
Track 16 not present in database
Track 17 not present in database
Track 18 not present in database

None of the tracks are present in the AccurateRip database

End of status report

[CUETools log; Date: 03.05.2015 14:22:58; Version: 2.1.4]
[CTDB TOCID: o9NUwPrWfKsDet_jsXHsOaLaSLk-] found.
Track | CTDB Status
1 | (2/2) Accurately ripped
2 | (2/2) Accurately ripped
3 | (2/2) Accurately ripped
4 | (2/2) Accurately ripped
5 | (2/2) Accurately ripped
6 | (2/2) Accurately ripped
7 | (2/2) Accurately ripped
8 | (2/2) Accurately ripped
9 | (2/2) Accurately ripped
10 | (2/2) Accurately ripped
11 | (2/2) Accurately ripped
12 | (2/2) Accurately ripped
13 | (2/2) Accurately ripped
14 | (2/2) Accurately ripped
15 | (2/2) Accurately ripped
16 | (2/2) Accurately ripped
17 | (2/2) Accurately ripped
18 | (2/2) Accurately ripped
[AccurateRip ID: 002f4b4a-02773f9c-f910fb12] found.
Track [ CRC | V2 ] Status
01 [ca5a1aca|2f049912] (5+0/5) Accurately ripped
02 [9127ae87|578b988c] (5+0/5) Accurately ripped
03 [73c89230|4c31a84e] (5+0/5) Accurately ripped
04 [b908a65d|994d640f] (5+0/5) Accurately ripped
05 [d68981d8|d1c2dd26] (5+0/5) Accurately ripped
06 [ebd290aa|c765c639] (5+0/5) Accurately ripped
07 [5a8d7e99|7d5f49d2] (5+0/5) Accurately ripped
08 [fcf18cdf|5e342e0a] (5+0/5) Accurately ripped
09 [6f935b50|ce9a0b11] (5+0/5) Accurately ripped
10 [d68d67f1|3c30fd44] (5+0/5) Accurately ripped
11 [27dae444|51dec35c] (5+0/5) Accurately ripped
12 [5029ce38|a0953c3d] (5+0/5) Accurately ripped
13 [f7c0e180|64807e9f] (5+0/5) Accurately ripped
14 [3dc5a9ae|68aad463] (5+0/5) Accurately ripped
15 [76dc7820|5a4a24e6] (5+0/5) Accurately ripped
16 [4a3a80e9|d543d157] (5+0/5) Accurately ripped
17 [81c66eb2|43b0397d] (5+0/5) Accurately ripped
18 [2a861473|7cf0d2a1] (5+0/5) Accurately ripped

Track Peak [ CRC32 ] [W/O NULL] [ LOG ]
– 100,0 [03819DAC] [088A7A6B] CRC32
01 87,6 [BECAE91E] [456F0E9B]
02 87,6 [19DBAF1F] [0F37226C]
03 87,6 [7909E52A] [79F08A18]
04 87,6 [B8C8BDF8] [1C404C92]
05 87,6 [87499B61] [6D7308CA]
06 87,6 [43BCBD1B] [5BAE6085]
07 87,6 [DDDE3BCF] [03ED9FCF]
08 87,6 [2939C9C5] [67FF5FF7]
09 87,7 [1FF58BEE] [141EB85C]
10 87,6 [373944AC] [54FFABF9]
11 87,7 [F1048439] [217B4E09]
12 100,0 [92460C54] [E404BB48]
13 87,6 [3AB353E6] [B1B09592]
14 87,6 [7FAAFEBA] [102C1127]
15 87,6 [198DBDF0] [9D17AFE1]
16 87,6 [6FBA112A] [2CDB1A95]
17 87,7 [A3A95180] [28DABBB1]
18 87,6 [F8FEC236] [AF4E5817]

Exact Audio Copy V0.99 prebeta 4 from 23. January 2008

EAC extraction logfile from 17. September 2008, 22:16

Carlos Peron / Gold for Iron (Disc 2)

Used drive : _NEC DVD_RW ND-4570A Adapter: 1 ID: 0

Read mode : Secure
Utilize accurate stream : Yes
Defeat audio cache : Yes
Make use of C2 pointers : No

Read offset correction : 48
Overread into Lead-In and Lead-Out : No
Fill up missing offset samples with silence : Yes
Delete leading and trailing silent blocks : No
Null samples used in CRC calculations : Yes
Used interface : Native Win32 interface for Win NT & 2000

Used output format : User Defined Encoder
Selected bitrate : 1024 kBit/s
Quality : High
Add ID3 tag : No
Command line compressor : C:\Program Files\Exact Audio Copy\FLAC\FLAC.EXE
Additional command line options : -6 -V -T "ARTIST=%a" -T "TITLE=%t" -T "ALBUM=%g" -T "DATE=%y" -T "TRACKNUMBER=%n" -T "GENRE=%m" -T "COMMENT=%e" %s -o %d


TOC of the extracted CD

Track | Start | Length | Start sector | End sector
––––––––––––––––––––––––––––-
1 | 0:00.00 | 3:57.72 | 0 | 17846
2 | 3:57.72 | 3:57.73 | 17847 | 35694
3 | 7:55.70 | 7:08.32 | 35695 | 67826
4 | 15:04.27 | 7:02.00 | 67827 | 99476
5 | 22:06.27 | 4:40.58 | 99477 | 120534
6 | 26:47.10 | 4:18.30 | 120535 | 139914
7 | 31:05.40 | 6:45.15 | 139915 | 170304
8 | 37:50.55 | 4:00.65 | 170305 | 188369
9 | 44:23.45 | 4:09.32 | 199770 | 218476


Range status and errors

Selected range

Filename E:\раздача\gold for iron\2\Carlos Peron - Gold for Iron (Disc 2).wav

Peak level 98.8 %
Range quality 100.0 %
Test CRC 42FDA2BC
Copy CRC 42FDA2BC
Copy OK

No errors occurred


AccurateRip summary

Track 1 not present in database
Track 2 not present in database
Track 3 not present in database
Track 4 not present in database
Track 5 not present in database
Track 6 not present in database
Track 7 not present in database
Track 8 not present in database

None of the tracks are present in the AccurateRip database

End of status report

[CUETools log; Date: 03.05.2015 14:23:39; Version: 2.1.4]
CD-Extra data track length 04:09:32.
[CTDB TOCID: BRZt0Yali_0ioR_H3oXca5bsMR0-] found.
Track | CTDB Status
1 | (2/2) Accurately ripped
2 | (2/2) Accurately ripped
3 | (2/2) Accurately ripped
4 | (2/2) Accurately ripped
5 | (2/2) Accurately ripped
6 | (2/2) Accurately ripped
7 | (2/2) Accurately ripped
8 | (2/2) Accurately ripped
[AccurateRip ID: 000d46be-005aae25-850b6109] found.
Track [ CRC | V2 ] Status
01 [795cdf4e|36a9b055] (4+0/4) Accurately ripped
02 [1c84d3dd|27cadf7a] (4+0/4) Accurately ripped
03 [8060ad54|442e9637] (4+0/4) Accurately ripped
04 [0661ef7d|f6f088f6] (4+0/4) Accurately ripped
05 [aa0fc8c1|6394837e] (4+0/4) Accurately ripped
06 [985704d3|3b57caa7] (4+0/4) Accurately ripped
07 [f7d494d6|e9625c07] (4+0/4) Accurately ripped
08 [61113def|7c3b652f] (4+0/4) Accurately ripped

Track Peak [ CRC32 ] [W/O NULL] [ LOG ]
– 98,8 [42FDA2BC] [3BD47A66] CRC32
01 98,8 [3A8A60E7] [CA2FC105]
02 98,8 [04A32C39] [EB1DA926]
03 98,8 [8BD709D0] [0C7A824C]
04 98,8 [4953B07D] [A590144B]
05 98,8 [7BDE2712] [88C0D3A4]
06 88,0 [28AAA6B5] [58DE6685]
07 98,8 [A164D343] [0E2C2978]
08 97,4 [B50A15CB] [18B3CD7C]

Thanks to unbalance

See also:
Carlos Perón - 11 Deadly Sins: Music For Fetish And Erotic Sessions (2011) [11CD Box Set]

Carlos Perón - Impersonator I (1981) [Reissue 2006]

LOSSLESS:
Nitroflare.com
_______________

MP3 320 kbps:
Nitroflare.com
_______________

Covers:
Nitroflare.com
______________________________________

Carlos Perón - Nothing Is True; Everything Is Permitted (1983) [Reissue 2006]

LOSSLESS:
Nitroflare.com
_______________

MP3 320 kbps:
Nitroflare.com
_______________

Covers:
Nitroflare.com
______________________________________

Carlos Perón - Die Schöpfung Der Welt Oder 7 Tage Gottes (1984) [Reissue 2006]

LOSSLESS:
Nitroflare.com
_______________

MP3 320 kbps:
Nitroflare.com
_______________

Covers:
Nitroflare.com
______________________________________

Carlos Perón - Gold For Iron (1988) [Reissue 2006]

LOSSLESS:
Nitroflare.com
_______________

MP3 320 kbps:
Nitroflare.com
_______________

Covers:
Nitroflare.com

Carlos Perón - Impersonator I (1981) [Reissue 2006]

LOSSLESS:
Depositfiles.com
_______________

MP3 320 kbps:
Depositfiles.com
_______________

Covers:
Depositfiles.com
______________________________________

Carlos Perón - Nothing Is True; Everything Is Permitted (1983) [Reissue 2006]

LOSSLESS:
Depositfiles.com
_______________

MP3 320 kbps:
Turbobit.net
_______________

Covers:
Depositfiles.com
______________________________________

Carlos Perón - Die Schöpfung Der Welt Oder 7 Tage Gottes (1984) [Reissue 2006]

LOSSLESS:
Depositfiles.com
_______________

MP3 320 kbps:
Depositfiles.com
_______________

Covers:
Depositfiles.com
______________________________________

Carlos Perón - Gold For Iron (1988) [Reissue 2006]

LOSSLESS:
Depositfiles.com
_______________

MP3 320 kbps:
Depositfiles.com
_______________

Covers:
Depositfiles.com