Tags
Language
Tags

Carlos Santana & Mahavishnu John McLaughlin - Love Devotion Surrender (1973) [MFSL, 2011]

Posted By: gribovar
Carlos Santana & Mahavishnu John McLaughlin - Love Devotion Surrender (1973) [MFSL, 2011]

Carlos Santana & Mahavishnu John McLaughlin - Love Devotion Surrender (1973) [MFSL, 2011]
EAC Rip | WavPack (image+.cue+log) - 236 MB | MP3 CBR 320 kbps (LAME 3.93) - 91 MB | Covers - 58 MB
Genre: Jazz-Rock, Fusion | RAR 3% Rec. | Label: Mobile Fidelity Sound Lab (UDSACD 2080)

Two guitar giants. A collective band comprised of virtuosic instrumentalists. One shared goal. And one tremendous album, commonly referred to as the equivalent of aural nirvana. Still the only meeting of Santana and John McLaughlin, Love Devotion Surrender more than lives up to the promise offered by its principal creators as it’s a spiritual journey based in divine faith, religious toleration, and the forward-thinking philosophy that music can take us closer to the truth. These enlightening concepts are reflected in the playing of Santana and McLaughlin, who repeatedly hit a higher plane on this stunning 1973 set.
Having each become a follower of Indian guru Sri Chinmoy, Santana and McLaughlin began playing together in 1972, with each legend currently in the midst of personal and creative transition. Santana was moving away from rock-based songs in favor of exploratory jazz-rock fusion. McLaughlin had already achieved fame with the Mahavishnu Orchestra, on the brink of collapse due to disagreements within the band. On Love Devotion Surrender, the duo pools its interest in spirituality and transcendence into expressively gorgeous art steeped in improvisational lines, ecstatic chords, and sensitive organ accompaniment courtesy of the record’s best-kept secret, Larry Young.
In addition to the search for sacred soulfulness, the common denominator throughout is John Coltrane, who engaged in similar pursuits during the 1960s. Two of the five compositions are interpretations of Coltrane standards while the lynchpin, a nearly 16-minute investigation into the traditional “Let Us Go Into the House of the Lord,” seamlessly integrates melodic structure, jazz phrasing, gospel mysticism, and tonal shaping into one of the most hopeful and uplifting pieces of music you’ll ever hear.
Tracklist:
01. A Love Supreme (John Coltrane cover)
02. Naima (John Coltrane cover)
03. The Life Divine
04. Let Us Go Into The House Of The Lord (Traditional)
05. Meditation

Total time: 38:58

Exact Audio Copy V1.0 beta 3 from 29. August 2011

EAC extraction logfile from 8. December 2011, 20:32

Carlos Santana & Mahavishnu John McLaughlin / Love Devotion Surrender [MFSL UDSACD 2080]

Used drive : Optiarc DVD RW AD-7200S Adapter: 2 ID: 1

Read mode : Secure
Utilize accurate stream : Yes
Defeat audio cache : Yes
Make use of C2 pointers : No

Read offset correction : 48
Overread into Lead-In and Lead-Out : No
Fill up missing offset samples with silence : Yes
Delete leading and trailing silent blocks : No
Null samples used in CRC calculations : Yes
Used interface : Installed external ASPI interface

Used output format : User Defined Encoder
Selected bitrate : 1024 kBit/s
Quality : High
Add ID3 tag : No
Command line compressor : C:\Program Files\Exact Audio Copy\wavpack.exe
Additional command line options : -hlmx2 %source% %dest%


TOC of the extracted CD

Track | Start | Length | Start sector | End sector
––––––––––––––––––––––––––––-
1 | 0:00.00 | 7:48.57 | 0 | 35156
2 | 7:48.57 | 3:11.01 | 35157 | 49482
3 | 10:59.58 | 9:29.56 | 49483 | 92213
4 | 20:29.39 | 15:39.54 | 92214 | 162692
5 | 36:09.18 | 2:48.39 | 162693 | 175331


Range status and errors

Selected range

Filename C:\lossless\Carlos Santana & Mahavishnu John McLaughlin\Carlos Santana & Mahavishnu John McLaughlin - Love Devotion Surrender [MFSL UDSACD 2080].wav

Peak level 98.6 %
Extraction speed 3.8 X
Range quality 100.0 %
Test CRC 33D3D748
Copy CRC 33D3D748
Copy OK

No errors occurred


AccurateRip summary

Track 1 not present in database
Track 2 not present in database
Track 3 not present in database
Track 4 not present in database
Track 5 not present in database

None of the tracks are present in the AccurateRip database

End of status report

–– CUETools DB Plugin V2.1.3

[CTDB TOCID: larSLSMUYvvquc97Iw5qr8Tf_SQ-] disk not present in database, Submit result: larSLSMUYvvquc97Iw5qr8Tf_SQ- has been uploaded


==== Log checksum A3D3ABAD29C6FC7CE3D083752A85F3E84FF888F6EF9782CBD777457B9168BDB3 ====

[CUETools log; Date: 23.12.2017 16:02:28; Version: 2.1.4]
[CTDB TOCID: larSLSMUYvvquc97Iw5qr8Tf_SQ-] found.
Track | CTDB Status
1 | (38/39) Accurately ripped
2 | (38/39) Accurately ripped
3 | (38/39) Accurately ripped
4 | (37/39) Accurately ripped
5 | (38/39) Accurately ripped
[AccurateRip ID: 0007db3f-00256e55-2c092105] found.
Track [ CRC | V2 ] Status
01 [a9bd70b7|ba5a4d66] (06+38/44) Accurately ripped
02 [de5c419e|8bb183a9] (06+38/44) Accurately ripped
03 [1dead2b5|1da88ddc] (06+38/44) Accurately ripped
04 [b5cb6b96|7671cab9] (06+37/43) Accurately ripped
05 [36846186|f5f8b4ee] (06+38/44) Accurately ripped

Track Peak [ CRC32 ] [W/O NULL] [ LOG ]
– 98,6 [33D3D748] [3E4CB9E0] CRC32
01 94,6 [5635BEE4] [829EF291]
02 94,4 [E25661B9] [4C8EF069]
03 98,6 [C314E269] [7AFE0E85]
04 96,1 [ABB68CB2] [1AF4C89A]
05 51,8 [7EE0AA5B] [3FBEE4F6]

Thanks to taurus66