Tags
Language
Tags

Carly Simon - My Romance (1990)

Posted By: popsakov
Carly Simon - My Romance (1990)

Carly Simon - My Romance (1990)
EAC Rip | FLAC (Img) + Cue + Log ~ 202 Mb | MP3 CBR320 ~ 91 Mb
Full Scans ~ 45 Mb | 00:37:45 | RAR 5% Recovery
Pop, Vocal Jazz, Standards | Arista #ARCD-8582

My Romance is an album by the U.S. singer-songwriter Carly Simon, released in 1990. It is her fourteenth studio album, and her sixteenth album overall, as well as being her second album devoted to standards. The album peaked at No. 46 on the Billboard 200, and remained on the chart for 17 weeks. Simon's version of In the Wee Small Hours of the Morning from this album was featured in the hit 1993 film Sleepless in Seattle, as well as being included on the film's soundtrack album.
Carly Simon - My Romance (1990)


***************

Carly Simon - My Romance (1990)

Carly Simon - My Romance (1990)

Track List:

01. My Romance [0:02:36.37]
02. By Myself / I See Your Face Before Me [0:03:14.03]
03. When Your Lover Has Gone [0:04:08.35]
04. In The Wee Small Hours Of The Morning [0:03:17.57]
05. My Funny Valentine [0:03:24.08]
06. Something Wonderful [0:02:17.27]
07. Little Girl Blue [0:03:44.70]
08. He Was Too Good For Me [0:02:41.25]
09. What Has She Got [0:02:44.25]
10. Bewitched [0:04:05.50]
11. Danny Boy [0:03:24.28]
12. Time After Time [0:02:06.15]

Personnel:
Carly Simon - vocals, piano
Jimmy Ryan - guitar
Michael Brecker - saxophone
Marvin Stamm - trumpet
Michael Kosarin - piano
Jay Leonhart - acoustic bass
Wayne Pedzwiatr - bass
Steve Gadd - drums
Gordon Gottlieb - percussion

Exact Audio Copy V1.3 from 2. September 2016

EAC extraction logfile from 7. July 2017, 9:35

Carly Simon / My Romance

Used drive : PLEXTOR DVDR PX-716A Adapter: 1 ID: 0

Read mode : Secure
Utilize accurate stream : Yes
Defeat audio cache : Yes
Make use of C2 pointers : No

Read offset correction : 30
Overread into Lead-In and Lead-Out : No
Fill up missing offset samples with silence : Yes
Delete leading and trailing silent blocks : No
Null samples used in CRC calculations : Yes
Used interface : Installed external ASPI interface

Used output format : User Defined Encoder
Selected bitrate : 1024 kBit/s
Quality : High
Add ID3 tag : No
Command line compressor : C:\Program Files (x86)\Exact Audio Copy\Flac\flac.exe
Additional command line options : -6 -V -T "ARTIST=%artist%" -T "TITLE=%title%" -T "ALBUM=%albumtitle%" -T "DATE=%year%" -T "TRACKNUMBER=%tracknr%" -T "GENRE=%genre%" -T "COMMENT=%comment%" -T "BAND=%albuminterpret%" -T "ALBUMARTIST=%albuminterpret%" -T "COMPOSER=%composer%" %haslyrics%–tag-from-file=LYRICS="%lyricsfile%"%haslyrics% -T "DISCNUMBER=%cdnumber%" -T "TOTALDISCS=%totalcds%" -T "TOTALTRACKS=%numtracks%" %hascover%–picture="%coverfile%"%hascover% %source% -o %dest%


TOC of the extracted CD

Track | Start | Length | Start sector | End sector
––––––––––––––––––––––––––––-
1 | 0:00.00 | 2:36.37 | 0 | 11736
2 | 2:36.37 | 3:14.03 | 11737 | 26289
3 | 5:50.40 | 4:08.35 | 26290 | 44924
4 | 9:59.00 | 3:17.57 | 44925 | 59756
5 | 13:16.57 | 3:24.08 | 59757 | 75064
6 | 16:40.65 | 2:17.27 | 75065 | 85366
7 | 18:58.17 | 3:44.70 | 85367 | 102236
8 | 22:43.12 | 2:41.25 | 102237 | 114336
9 | 25:24.37 | 2:44.25 | 114337 | 126661
10 | 28:08.62 | 4:05.50 | 126662 | 145086
11 | 32:14.37 | 3:24.28 | 145087 | 160414
12 | 35:38.65 | 2:06.15 | 160415 | 169879


Range status and errors

Selected range

Filename C:\mm\Carly Simon\1990 - My Romance [ARCD-8582]\Carly Simon - My Romance.wav

Peak level 100.0 %
Extraction speed 6.5 X
Range quality 100.0 %
Test CRC 54D6CBC1
Copy CRC 54D6CBC1
Copy OK

No errors occurred

End of status report

–– CUETools DB Plugin V2.1.6

[CTDB TOCID: OwNr8uqsb_SNDTStjjH_YNDukjk-] found
Submit result: OwNr8uqsb_SNDTStjjH_YNDukjk- has been confirmed
Track | CTDB Status
1 | (65/65) Accurately ripped
2 | (65/65) Accurately ripped
3 | (63/65) Accurately ripped
4 | (65/65) Accurately ripped
5 | (65/65) Accurately ripped
6 | (65/65) Accurately ripped
7 | (65/65) Accurately ripped
8 | (65/65) Accurately ripped
9 | (65/65) Accurately ripped
10 | (65/65) Accurately ripped
11 | (65/65) Accurately ripped
12 | (65/65) Accurately ripped

foobar2000 1.2.6 / Dynamic Range Meter 1.1.1
log date: 2017-07-12 22:13:38

––––––––––––––––––––––––––––––––––––––––
Analyzed: Carly Simon / My Romance
––––––––––––––––––––––––––––––––––––––––

DR Peak RMS Duration Track
––––––––––––––––––––––––––––––––––––––––
DR10 -1.19 dB -15.88 dB 2:36 01-My Romance
DR12 -2.67 dB -19.03 dB 3:14 02-By Myself / I See Your Face Before Me
DR11 0.00 dB -14.38 dB 4:08 03-When Your Lover Has Gone
DR12 0.00 dB -17.78 dB 3:18 04-In The Wee Small Hours Of The Morning
DR11 -1.01 dB -17.44 dB 3:24 05-My Funny Valentine
DR11 0.00 dB -16.67 dB 2:17 06-Something Wonderful
DR11 -0.66 dB -16.58 dB 3:45 07-Little Girl Blue
DR12 -1.40 dB -20.54 dB 2:41 08-He Was Too Good For Me
DR11 -0.36 dB -15.97 dB 2:44 09-What Has She Got
DR11 -2.35 dB -17.57 dB 4:06 10-Bewitched
DR10 0.00 dB -15.22 dB 3:24 11-Danny Boy
DR11 -0.61 dB -17.55 dB 2:06 12-Time After Time
––––––––––––––––––––––––––––––––––––––––

Number of tracks: 12
Official DR value: DR11

Samplerate: 44100 Hz
Channels: 2
Bits per sample: 16
Bitrate: 712 kbps
Codec: FLAC
================================================================================

[CUETools log; Date: 12.07.2017 22:13:48; Version: 2.1.5]
[CTDB TOCID: OwNr8uqsb_SNDTStjjH_YNDukjk-] found.
Track | CTDB Status
1 | (67/67) Accurately ripped
2 | (67/67) Accurately ripped
3 | (65/67) Accurately ripped
4 | (66/67) Accurately ripped
5 | (67/67) Accurately ripped
6 | (67/67) Accurately ripped
7 | (67/67) Accurately ripped
8 | (67/67) Accurately ripped
9 | (67/67) Accurately ripped
10 | (67/67) Accurately ripped
11 | (67/67) Accurately ripped
12 | (67/67) Accurately ripped
[AccurateRip ID: 00111ddf-009fc923-8908d90c] found.
Track [ CRC | V2 ] Status
01 [723879af|d90b9f99] (29+38/94) Accurately ripped
02 [006c6e39|5fe6960b] (29+39/95) Accurately ripped
03 [5d66051f|d7d824ad] (29+39/95) Accurately ripped
04 [34288ffe|17c87bcc] (29+39/95) Accurately ripped
05 [9b02431f|981dc7ba] (29+39/95) Accurately ripped
06 [909f147d|bd40cc46] (29+39/95) Accurately ripped
07 [07c6a339|5025a575] (29+39/95) Accurately ripped
08 [4d606ceb|979305d4] (29+39/95) Accurately ripped
09 [02d1fdb3|a57df48e] (29+39/95) Accurately ripped
10 [f90832a0|60a3e181] (28+39/94) Accurately ripped
11 [c2ab1d35|afdbc18e] (29+40/96) Accurately ripped
12 [29395abc|6858383f] (28+40/92) Accurately ripped
Offsetted by -2929:
01 [df2aa75e] (03/94) Accurately ripped
02 [64f63655] (03/95) Accurately ripped
03 [686ab0aa] (03/95) Accurately ripped
04 [70a2b26c] (03/95) Accurately ripped
05 [1aff87df] (03/95) Accurately ripped
06 [b8640519] (03/95) Accurately ripped
07 [9ee04afc] (03/95) Accurately ripped
08 [38f01aa4] (03/95) Accurately ripped
09 [3a7456ed] (03/95) Accurately ripped
10 [df1bb830] (03/94) Accurately ripped
11 [ee45ffe1] (03/96) Accurately ripped
12 [4ff9bf8a] (03/92) Accurately ripped
Offsetted by -2350:
01 [4457b041] (03/94) Accurately ripped
02 [1e4e9bc1] (03/95) Accurately ripped
03 [690919b9] (03/95) Accurately ripped
04 [211e7002] (03/95) Accurately ripped
05 [119ac59f] (03/95) Accurately ripped
06 [ad61f905] (03/95) Accurately ripped
07 [994dfae3] (03/95) Accurately ripped
08 [b6e75e09] (03/95) Accurately ripped
09 [eb7548df] (03/95) Accurately ripped
10 [572a9080] (03/94) Accurately ripped
11 [faface9d] (03/96) Accurately ripped
12 [dc063c00] (03/92) Accurately ripped
Offsetted by -2127:
01 [1a65f040] (02/94) Accurately ripped
02 [eac6df1d] (02/95) Accurately ripped
03 [ee5bc6d4] (02/95) Accurately ripped
04 [cbaaf210] (02/95) Accurately ripped
05 [b2e7ce5f] (02/95) Accurately ripped
06 [f36c3ce1] (02/95) Accurately ripped
07 [cb54dab6] (02/95) Accurately ripped
08 [a913c0f2] (02/95) Accurately ripped
09 [d969b5f9] (02/95) Accurately ripped
10 [7a5a4910] (02/94) Accurately ripped
11 [96a4cf89] (02/96) Accurately ripped
12 [567ee26e] (02/92) Accurately ripped
Offsetted by 742:
01 [44ca9dd5] (04/94) Accurately ripped
02 [13877e91] (04/95) Accurately ripped
03 [83c6071d] (04/95) Accurately ripped
04 [5a6a49ea] (04/95) Accurately ripped
05 [94b7f69f] (04/95) Accurately ripped
06 [383c11d5] (04/95) Accurately ripped
07 [77213de7] (04/95) Accurately ripped
08 [2d257a55] (04/95) Accurately ripped
09 [3bdf23d7] (04/95) Accurately ripped
10 [f3468d40] (04/94) Accurately ripped
11 [9183ca2d] (04/96) Accurately ripped
12 [ed802e68] (04/92) Accurately ripped
Offsetted by -2554:
01 [ad4bccf5] (02/94) Accurately ripped
02 [31e52f11] (02/95) Accurately ripped
03 [bdb56ebd] (02/95) Accurately ripped
04 [3a7b762a] (02/95) Accurately ripped
05 [f7bb9e9f] (02/95) Accurately ripped
06 [51c23255] (02/95) Accurately ripped
07 [7cc28687] (02/95) Accurately ripped
08 [ff3f5635] (02/95) Accurately ripped
09 [f75fba97] (02/95) Accurately ripped
10 [cd5d0b40] (02/94) Accurately ripped
11 [7dcc58ad] (02/96) Accurately ripped
12 [2dff2ea8] (00/92) No match (V2 was not tested)
Offsetted by 720:
01 [5a26327f] (00/94) No match (V2 was not tested)
02 [60ef9379] (00/95) No match (V2 was not tested)
03 [d832f72f] (00/95) No match (V2 was not tested)
04 [ad76d49e] (00/95) No match (V2 was not tested)
05 [0561271f] (00/95) No match (V2 was not tested)
06 [79a5d1bd] (00/95) No match (V2 was not tested)
07 [e4fe1fc9] (00/95) No match (V2 was not tested)
08 [11cf979b] (00/95) No match (V2 was not tested)
09 [c9b4a893] (00/95) No match (V2 was not tested)
10 [850abda0] (00/94) No match (V2 was not tested)
11 [f4f4bd75] (00/96) No match (V2 was not tested)
12 [4425115c] (00/92) No match (V2 was not tested)

Track Peak [ CRC32 ] [W/O NULL] [ LOG ]
– 99,9 [54D6CBC1] [2A334155] CRC32
01 87,2 [15772C10] [DF1A21EE]
02 73,5 [96EE4B1E] [67E8F194]
03 99,9 [E7AD1946] [FE4E4F00]
04 99,9 [E53D881B] [B9A214D7]
05 89,0 [95F65AB8] [CA797D0D]
06 99,9 [2288503B] [3CD2BCFA]
07 92,6 [85E401E5] [39C3E467]
08 85,1 [7FD70B07] [D0A10FB2]
09 95,9 [54219751] [27CFD77D]
10 76,3 [DB901A4B] [2C4EBADC]
11 99,9 [D2B857BA] [4CF54F02]
12 93,1 [C84775D8] [905A8D1E]

Carly Simon - My Romance (1990)


See also:
Carly Simon - Never Been Gone (2010)

All thanks go to sergych

>>> My Blog <<<

DOWNLOAD: