Subcategories
Please register here if you want to download anything!

If domain in your address bar is different from the list below
PLEASE LEAVE THAT SITE IMMEDIATELY
❗IT'S A DANGEROUS FAKE❗



Spicy Magazines for Men! ;-)

Carole King - Tapestry (1971) [MFSL, UDSACD 2117]

Posted By: v3122
Carole King - Tapestry (1971) [MFSL, UDSACD 2117]

Carole King - Tapestry (1971)
EAC | Flac(Image) + Cue + Log & MP3 CBR 320Kbps
2013 | Mobile Fidelity Sound Lab, UDSACD 2117 | ~ 253 or 106 Mb | Scans(jpg) -> 26 Mb
Folk Rock, Soft Rock

Carole King brought the fledgling singer/songwriter phenomenon to the masses with Tapestry, one of the most successful albums in pop music history. A remarkably expressive and intimate record, it's a work of consummate craftsmanship. Always a superior pop composer, King reaches even greater heights as a performer; new songs like the hits "It's Too Late" and "I Feel the Earth Move" rank solidly with past glories, while songs like "Will You Still Love Me Tomorrow," and "(You Make Me Feel Like) A Natural Woman" take on added resonance when delivered in her own warm, compelling voice. With its reliance on pianos and gentle drumming, Tapestry is a light and airy work on its surface, occasionally skirting the boundaries of jazz, but it's also an intensely emotional record, the songs confessional and direct; in its time it connected with listeners like few records before it, and it remains an illuminating experience decades later.

by Jason Ankeny, allmusic
Carole King - Tapestry (1971):

Carole King - Tapestry (1971) [MFSL, UDSACD 2117]

Tracklist:

01. I Feel The Earth Move [3:00]
02. So Far Away [3:56]
03. It's Too Late [3:54]
04. Home Again [2:29]
05. Beautiful [3:08]
06. Way Over Yonder [4:46]
07. You've Got A Friend [5:10]
08. Where You Lead [3:20]
09. Will You Love Me Tomorrow [4:13]
10. Smackwater Jack [3:43]
11. Tapestry [3:16]
12. (You Make Me Feel) Like A Natural Woman [3:53]

Exact Audio Copy V1.3 from 2. September 2016

EAC extraction logfile from 27. November 2016, 14:35

CAROLE KING / Tapestry (USA, MFSL, UDSACD 2117)

Used drive : ASUS DRW-24B3ST Adapter: 1 ID: 2

Read mode : Secure
Utilize accurate stream : Yes
Defeat audio cache : Yes
Make use of C2 pointers : No

Read offset correction : 6
Overread into Lead-In and Lead-Out : No
Fill up missing offset samples with silence : Yes
Delete leading and trailing silent blocks : No
Null samples used in CRC calculations : Yes
Used interface : Native Win32 interface for Win NT & 2000

Used output format : User Defined Encoder
Selected bitrate : 1024 kBit/s
Quality : High
Add ID3 tag : No
Command line compressor : C:\Program Files\EAC(v.1.3)\WV\wavpack.exe
Additional command line options : -h -hh -m %source%


TOC of the extracted CD

Track | Start | Length | Start sector | End sector
––––––––––––––––––––––––––––-
1 | 0:00.00 | 2:59.68 | 0 | 13492
2 | 2:59.68 | 3:55.43 | 13493 | 31160
3 | 6:55.36 | 3:53.56 | 31161 | 48691
4 | 10:49.17 | 2:29.23 | 48692 | 59889
5 | 13:18.40 | 3:08.07 | 59890 | 73996
6 | 16:26.47 | 4:46.20 | 73997 | 95466
7 | 21:12.67 | 5:10.24 | 95467 | 118740
8 | 26:23.16 | 3:20.22 | 118741 | 133762
9 | 29:43.38 | 4:13.15 | 133763 | 152752
10 | 33:56.53 | 3:42.53 | 152753 | 169455
11 | 37:39.31 | 3:15.57 | 169456 | 184137
12 | 40:55.13 | 3:53.01 | 184138 | 201613


Range status and errors

Selected range

Filename F:\CAROLE KING - Tapestry (1971) (US 2013 Mobile Fidelity Sound Lab • UDSACD 2117)\CAROLE KING - Tapestry (USA, MFSL, UDSACD 2117).wav

Peak level 99.2 %
Extraction speed 7.3 X
Range quality 99.9 %
Test CRC D2B39FF9
Copy CRC D2B39FF9
Copy OK

No errors occurred


AccurateRip summary

Track 1 accurately ripped (confidence 30) [97D0B385] (AR v2)
Track 2 accurately ripped (confidence 30) [0D91DD2B] (AR v2)
Track 3 accurately ripped (confidence 30) [B749E032] (AR v2)
Track 4 accurately ripped (confidence 30) [5295A45E] (AR v2)
Track 5 accurately ripped (confidence 30) [E4E84C0B] (AR v2)
Track 6 accurately ripped (confidence 30) [14AC3A78] (AR v2)
Track 7 accurately ripped (confidence 30) [30B9D62B] (AR v2)
Track 8 accurately ripped (confidence 30) [2562BF70] (AR v2)
Track 9 accurately ripped (confidence 30) [ACAAD841] (AR v2)
Track 10 accurately ripped (confidence 30) [F1340A4F] (AR v2)
Track 11 accurately ripped (confidence 30) [2CAE6848] (AR v2)
Track 12 accurately ripped (confidence 30) [E5B1ED55] (AR v2)

All tracks accurately ripped

End of status report

==== Log checksum 04F08D886A1169F1C0475CD4B812BCE9566801007D434EAD7EC36A903150A226 ====

foobar2000 1.2.9 / Dynamic Range Meter 1.1.1
log date: 2016-11-28 23:52:31

––––––––––––––––––––––––––––––––––––––––
Analyzed: CAROLE KING / Tapestry (USA, MFSL, UDSACD 2117)
––––––––––––––––––––––––––––––––––––––––

DR Peak RMS Duration Track
––––––––––––––––––––––––––––––––––––––––
DR10 -0.06 dB -12.39 dB 3:00 01-I Feel The Earth Move
DR13 -0.33 dB -16.93 dB 3:56 02-So Far Away
DR12 -0.35 dB -15.61 dB 3:54 03-It's Too Late
DR12 -0.39 dB -15.05 dB 2:29 04-Home Again
DR11 -0.19 dB -14.16 dB 3:08 05-Beautiful
DR11 -0.23 dB -14.47 dB 4:46 06-Way Over Yonder
DR11 -0.28 dB -13.66 dB 5:10 07-You've Got A Friend
DR11 -0.23 dB -13.69 dB 3:20 08-Where You Lead
DR11 -0.30 dB -15.06 dB 4:13 09-Will You Love Me Tomorrow
DR12 -0.19 dB -14.39 dB 3:43 10-Smackwater Jack
DR11 -1.75 dB -15.89 dB 3:16 11-Tapestry
DR12 -0.45 dB -16.56 dB 3:53 12-(You Make Me Feel) Like A Natural Woman
––––––––––––––––––––––––––––––––––––––––

Number of tracks: 12
Official DR value: DR11

Samplerate: 44100 Hz
Channels: 2
Bits per sample: 16
Bitrate: 768 kbps
Codec: FLAC

[CUETools log; Date: 28.11.2016 23:52:20; Version: 2.1.4]
[CTDB TOCID: rwiezpGN.OnpNQjscWlgxx95QjA-] found.
Track | CTDB Status
1 | (26/26) Accurately ripped
2 | (26/26) Accurately ripped
3 | (26/26) Accurately ripped
4 | (26/26) Accurately ripped
5 | (26/26) Accurately ripped
6 | (26/26) Accurately ripped
7 | (26/26) Accurately ripped
8 | (26/26) Accurately ripped
9 | (26/26) Accurately ripped
10 | (26/26) Accurately ripped
11 | (26/26) Accurately ripped
12 | (26/26) Accurately ripped
[AccurateRip ID: 0013945d-00b8ad06-a50a800c] found.
Track [ CRC | V2 ] Status
01 [91a49127|97d0b385] (00+30/30) Accurately ripped
02 [cda79df4|0d91dd2b] (00+30/30) Accurately ripped
03 [cbdfe473|b749e032] (00+30/30) Accurately ripped
04 [14355b0f|5295a45e] (00+30/30) Accurately ripped
05 [73f1a523|e4e84c0b] (00+30/30) Accurately ripped
06 [e6cf52b2|14ac3a78] (00+30/30) Accurately ripped
07 [42314006|30b9d62b] (00+30/30) Accurately ripped
08 [8bd48257|2562bf70] (00+30/30) Accurately ripped
09 [33631d52|acaad841] (00+30/30) Accurately ripped
10 [296f21e6|f1340a4f] (00+30/30) Accurately ripped
11 [34b591fe|2cae6848] (00+30/30) Accurately ripped
12 [5349cd86|e5b1ed55] (00+30/30) Accurately ripped

Track Peak [ CRC32 ] [W/O NULL] [ LOG ]
– 99,2 [D2B39FF9] [40EFF16E] CRC32
01 99,2 [2E441854] [6E703139]
02 96,2 [EF08E68C] [1A2D9C04]
03 96,0 [F63CB97D] [681C86CB]
04 95,6 [977BA10E] [FA256343]
05 97,8 [5C12506F] [6AC9B289]
06 97,3 [0A21362A] [ACE93C43]
07 96,8 [6914A4D0] [FC414573]
08 97,3 [26B2AC92] [7591F2B1]
09 96,5 [6BDC64EC] [90F8356D]
10 97,8 [7AC6417C] [7CAA5F4B]
11 81,7 [972BEFDE] [6C04FD6C]
12 94,9 [E84AF139] [EC05467C]

Carole King - Tapestry (1971) [MFSL, UDSACD 2117]

All thanks go to the original releaser

Download Carole King - Tapestry (1971):