Subcategories

Carole King - Her Greatest Hits: Songs of Long Ago (1978) [2007, Japanese Paper Sleeve]

Posted By: BlondStyle
Carole King - Her Greatest Hits: Songs of Long Ago (1978) [2007, Japanese Paper Sleeve]

Carole King - Her Greatest Hits: Songs of Long Ago (1978) [2007, Japanese Paper Sleeve]
Pop/Rock, Singer/Songwriter | EAC Rip | FLAC, Tracks+CUE + LOG + Covers (Back & Front)-600dpi (JPEG) | 51:21 Min | 329,33 Mb
Label: Epic Sony (Japan) | Released: 2007, October, 31
Carole King - Her Greatest Hits: Songs of Long Ago (1978) [2007, Japanese Paper Sleeve]

is the first official compilation album by . It was released in 1978 and features twelve songs that had previously appeared on her six studio albums released between 1971 and 1976. The album was re-released on CD in 1999 with two additional tracks. is 's first compilation album. The original release features twelve songs which had previously appeared on her studio albums , , , , and . Four of the songs had appeared on her second album , one of the most successful albums in the history of popular music. , a song of her third album , is the only one chosen for the compilation LP that was never released as a single. The original release does not feature any songs from her debut album or from her two most recent albums at the time of the initial release, and . The 1999 re-release of the album was digitally remastered and included the live versions of two more songs as performed during her concert in 1971: from her debut album , and which was originally recorded by in 1967 and was covered by for .

Release of the album: 1978 [LP Ode Records, Cat.# [url=http://www.discogs.com/Carole-King-Her-Greatest-Hits-Songs-Of-Long-Ago/release/2192669]JE 34967, USA]
Release of this CD: 2007, October, 31 [CD Epic Sony (Japan), Cat.# EICP-849 / EAN: 4547366032550]

Carole King - Her Greatest Hits: Songs of Long Ago (1978) [2007, Japanese Paper Sleeve]


Carole King: Keyboards, Vocals, Backing Vocals, Arrangement, Conductor
Ralph Schuckett: Organ, Electric Piano
James Taylor: Acoustic Guitar
Danny "Kootch" Kortchmar: Electric Guitar, Congas
Dean Parks: Guitar
Waddy Wachtel: Electric Guitar
David T. Walker: Electric Guitar
Charles Larkey: Electric Bass
Lee Sklar: Electric Bass
Russ Kunkel: Drums
Harvey Mason: Drums
Andy Newmark: Drums
Joel O'Brien: Drums
Ms. Bobbye Hall: Percussion
Ralph MacDonald: Percussion
Teresa Calderon: Congas
Tom Scott: Saxophone
Mike Altschul: Saxophone, Woodwinds
Ernie Watts: Saxophone, Woodwinds
Curtis Amy: Tenor Saxophone, Soprano Saxophone, Baritone Saxophone, Flute
Oscar Brashear: Fluegelhorn
Charlie Loper: Trombone
Dick "Slyde" Hyde: Trombone
George Bohanon: Trombone, Euphonium
Ollie Mitchell: Trumpet, Fluegelhorn
Chuck Findley: Trumpet, Fluegelhorn
Albert Aarons: Trumpet, Fluegelhorn
William Green: Woodwinds
William Collette: Woodwinds
Plas Johnson: Woodwinds
Norman Kurban and David Campbell: String Conduction & Arrangement
Merry Clayton: Backing Vocals
Louise Goffin: Backing Vocals
Sherry Goffin: Backing Vocals
Julia Tillman: Backing Vocals


Carole King - Her Greatest Hits: Songs of Long Ago (1978) [2007, Japanese Paper Sleeve]


Tracklist:

01. Jazzman (03:46)
(Carole King, David Palmer)
02. So Far Away (03:57)
(Carole King)
03. Sweet Seasons (03:16)
(Carole King, Toni Stern)
04. Brother, Brother (03:01)
(Carole King)
05. Only Love Is Real (03:33)
(Carole King)
06. I Feel The Earth Move (02:59)
(Carole King)
07. It's Too Late (03:55)
(Carole King, Stern)
08. Nightingale (03:38)
(Carole King, David Palmer)
09. Been To Canaan (03:39)
(Carole King)
10. Smackwater Jack (03:42)
(Gerry Goffin, Carole King)
11. Corazon (03:58)
(Carole King)
12. Believe In Humanity (03:21)
(Carole King)
13. Eventually (Live) (04:39)
(Gerry Goffin, Carole King)
14. (You Make Me Feel Like) A Natural Woman (Live) (03:58)
(Gerry Goffin, Carole King, Jerry Wexler)

Tracks 1 - 12 originally released by Ode Records in 1978
Tracks 13, 14 are bonus tracks (from the Carnegie Hall Concert)


Exact Audio Copy V1.0 beta 3 from 29. August 2011

EAC extraction logfile from 5. May 2015, 23:27

Carole King / Her Greatest Hits

Used drive : HL-DT-STDVDRAM GH24NS90 Adapter: 1 ID: 0

Read mode : Secure
Utilize accurate stream : Yes
Defeat audio cache : No
Make use of C2 pointers : Yes

Read offset correction : 6
Overread into Lead-In and Lead-Out : No
Fill up missing offset samples with silence : Yes
Delete leading and trailing silent blocks : No
Null samples used in CRC calculations : Yes
Used interface : Native Win32 interface for Win NT & 2000
Gap handling : Appended to previous track

Used output format : User Defined Encoder
Selected bitrate : 1024 kBit/s
Quality : High
Add ID3 tag : No
Command line compressor : C:\Program Files (x86)\FLAC\metaflac.exe
Additional command line options : -8


TOC of the extracted CD

Track | Start | Length | Start sector | End sector
––––––––––––––––––––––––––––-
1 | 0:00.00 | 3:46.10 | 0 | 16959
2 | 3:46.10 | 3:56.55 | 16960 | 34714
3 | 7:42.65 | 3:15.62 | 34715 | 49401
4 | 10:58.52 | 3:00.65 | 49402 | 62966
5 | 13:59.42 | 3:33.00 | 62967 | 78941
6 | 17:32.42 | 2:58.70 | 78942 | 92361
7 | 20:31.37 | 3:54.38 | 92362 | 109949
8 | 24:26.00 | 3:38.27 | 109950 | 126326
9 | 28:04.27 | 3:39.18 | 126327 | 142769
10 | 31:43.45 | 3:42.27 | 142770 | 159446
11 | 35:25.72 | 3:58.37 | 159447 | 177333
12 | 39:24.34 | 3:20.66 | 177334 | 192399
13 | 42:45.25 | 4:38.67 | 192400 | 213316
14 | 47:24.17 | 3:57.45 | 213317 | 231136


Track 1

Filename C:\Exact Audio Copy\Carole King\Her Greatest Hits\01 Jazzman .wav

Pre-gap length 0:00:02.00

Peak level 97.7 %
Extraction speed 3.6 X
Track quality 100.0 %
Test CRC 00204E66
Copy CRC 00204E66
Accurately ripped (confidence 2) [75B4334B] (AR v2)
Copy OK

Track 2

Filename C:\Exact Audio Copy\Carole King\Her Greatest Hits\02 So Far Away .wav

Peak level 97.7 %
Extraction speed 4.0 X
Track quality 99.9 %
Test CRC 9ACE334A
Copy CRC 9ACE334A
Accurately ripped (confidence 2) [B8CCF96B] (AR v2)
Copy OK

Track 3

Filename C:\Exact Audio Copy\Carole King\Her Greatest Hits\03 Sweet Seasons .wav

Peak level 97.7 %
Extraction speed 4.3 X
Track quality 100.0 %
Test CRC 46A55BEA
Copy CRC 46A55BEA
Accurately ripped (confidence 2) [A9218F6C] (AR v2)
Copy OK

Track 4

Filename C:\Exact Audio Copy\Carole King\Her Greatest Hits\04 Brother, Brother .wav

Peak level 97.7 %
Extraction speed 4.6 X
Track quality 100.0 %
Test CRC BB37F79F
Copy CRC BB37F79F
Accurately ripped (confidence 2) [13159DCC] (AR v2)
Copy OK

Track 5

Filename C:\Exact Audio Copy\Carole King\Her Greatest Hits\05 Only Love Is Real .wav

Peak level 97.7 %
Extraction speed 5.1 X
Track quality 100.0 %
Test CRC E3119F18
Copy CRC E3119F18
Accurately ripped (confidence 2) [0E06F86C] (AR v2)
Copy OK

Track 6

Filename C:\Exact Audio Copy\Carole King\Her Greatest Hits\06 I Feel The Earth Move .wav

Pre-gap length 0:00:01.00

Peak level 87.0 %
Extraction speed 5.1 X
Track quality 100.0 %
Test CRC BF06AB48
Copy CRC BF06AB48
Accurately ripped (confidence 2) [49595B65] (AR v2)
Copy OK

Track 7

Filename C:\Exact Audio Copy\Carole King\Her Greatest Hits\07 It's Too Late .wav

Peak level 97.7 %
Extraction speed 5.4 X
Track quality 100.0 %
Test CRC 08463E38
Copy CRC 08463E38
Accurately ripped (confidence 2) [97ACDBD3] (AR v2)
Copy OK

Track 8

Filename C:\Exact Audio Copy\Carole King\Her Greatest Hits\08 Nightingale .wav

Peak level 97.7 %
Extraction speed 5.9 X
Track quality 100.0 %
Test CRC 208D412C
Copy CRC 208D412C
Accurately ripped (confidence 2) [C48E354F] (AR v2)
Copy OK

Track 9

Filename C:\Exact Audio Copy\Carole King\Her Greatest Hits\09 Been To Canaan .wav

Peak level 99.9 %
Extraction speed 5.8 X
Track quality 99.9 %
Test CRC 41CC32EE
Copy CRC 41CC32EE
Accurately ripped (confidence 2) [E96693CC] (AR v2)
Copy OK

Track 10

Filename C:\Exact Audio Copy\Carole King\Her Greatest Hits\10 Smackwater Jack .wav

Pre-gap length 0:00:01.00

Peak level 100.0 %
Extraction speed 6.1 X
Track quality 100.0 %
Test CRC BF13B97C
Copy CRC BF13B97C
Accurately ripped (confidence 2) [852C8936] (AR v2)
Copy OK

Track 11

Filename C:\Exact Audio Copy\Carole King\Her Greatest Hits\11 Corazon .wav

Peak level 100.0 %
Extraction speed 6.6 X
Track quality 100.0 %
Test CRC 3E73B90D
Copy CRC 3E73B90D
Accurately ripped (confidence 2) [2251E444] (AR v2)
Copy OK

Track 12

Filename C:\Exact Audio Copy\Carole King\Her Greatest Hits\12 Believe In Humanity .wav

Pre-gap length 0:00:01.04

Peak level 100.0 %
Extraction speed 6.9 X
Track quality 100.0 %
Test CRC 5F236E09
Copy CRC 5F236E09
Accurately ripped (confidence 2) [284D37DA] (AR v2)
Copy OK

Track 13

Filename C:\Exact Audio Copy\Carole King\Her Greatest Hits\13 Eventually (Live) .wav

Pre-gap length 0:00:01.00

Peak level 100.0 %
Extraction speed 7.1 X
Track quality 100.0 %
Test CRC E351DA52
Copy CRC E351DA52
Accurately ripped (confidence 2) [4F9D371C] (AR v2)
Copy OK

Track 14

Filename C:\Exact Audio Copy\Carole King\Her Greatest Hits\14 (You Make Me Feel Like) A Natural Woman (Live) .wav

Peak level 100.0 %
Extraction speed 7.0 X
Track quality 100.0 %
Test CRC D67D36DA
Copy CRC D67D36DA
Accurately ripped (confidence 2) [AA4A49C6] (AR v2)
Copy OK


All tracks accurately ripped

No errors occurred

End of status report

==== Log checksum E84CE07F27FEF4454A7ED36A7B411358D04E6B300F64AB5CFFE01CF9C9D44423 ====

foobar2000 1.3.7 / Dynamic Range Meter 1.1.1
log date: 2015-05-11 01:46:00

––––––––––––––––––––––––––––––––––––––––
Analyzed: Carole King / Her Greatest Hits
––––––––––––––––––––––––––––––––––––––––

DR Peak RMS Duration Track
––––––––––––––––––––––––––––––––––––––––
DR11 -0.20 dB -12.89 dB 3:46 01 Jazzman
DR12 -0.20 dB -14.09 dB 3:57 02 So Far Away
DR12 -0.20 dB -13.91 dB 3:16 03 Sweet Seasons
DR11 -0.20 dB -13.80 dB 3:01 04 Brother, Brother
DR10 -0.20 dB -12.80 dB 3:33 05 Only Love Is Real
DR10 -1.20 dB -13.48 dB 2:59 06 I Feel The Earth Move
DR10 -0.20 dB -12.71 dB 3:55 07 It's Too Late
DR11 -0.20 dB -12.73 dB 3:38 08 Nightingale
DR11 0.00 dB -12.99 dB 3:39 09 Been To Canaan
DR11 0.00 dB -12.36 dB 3:42 10 Smackwater Jack
DR12 0.00 dB -14.34 dB 3:58 11 Corazon
DR11 0.00 dB -12.30 dB 3:21 12 Believe In Humanity
DR11 0.00 dB -14.88 dB 4:39 13 Eventually (Live)
DR10 0.00 dB -13.90 dB 3:58 14 (You Make Me Feel Like) A Natural Woman (Live)
––––––––––––––––––––––––––––––––––––––––

Number of tracks: 14
Official DR value: DR11

Samplerate: 44100 Hz
Channels: 2
Bits per sample: 16
Bitrate: 739 kbps
Codec: FLAC
================================================================================


All thanks to - saintsmon


password: BlondStyle

Uploadable