Subcategories

Carole King - Love Makes The World (2001) [2007, Japanese Paper Sleeve]

Posted By: BlondStyle
Carole King - Love Makes The World (2001) [2007, Japanese Paper Sleeve]

Carole King - Love Makes The World (2001) [2007, Japanese Paper Sleeve]
Pop/Rock, Soft Rock, Blue-Eyed Soul | EAC Rip | FLAC, Tracks+CUE + LOG + Artwork-600dpi (JPEG) | 45:59 Min | 430,57 Mb
Label: Victor Entertainment (Japan) | Released: 2007, November, 5
Carole King - Love Makes The World (2001) [2007, Japanese Paper Sleeve]

is a 2001 studio album by . Distributed by , it was her first release on her label. As of 2015, it is her most recent album of new material. During the release for the album, appeared in a series of television advertisements for , in which she performs a medley of and the lead single from the album, . Bouncing around smaller indie labels in the '90s after a few failed albums on majors, rebounded with this self-released 2001 disc on her own (an anagram of and a takeoff on her song ) imprint. Although it's not a totally successful return to her past triumphs, the disc is one of her best post-'70s albums and occasionally even rivals her most enduring work. Wisely, returns here to her strengths of melodic love ballads. While only a few selections match the natural woman charms of and , remains in terrific voice. When she keeps the arrangements stripped down, as on the closing and she taps into that N.Y.C. singer/songwriter vein that made her finest albums so memorable. Guest appearances from , , and are hardly necessary, since carries the weight of their songs herself. On the downside, 's exaggerated influence is far too intrusive on overloading a perfectly good track with the bombastic ballad treatment is recognized for. sounds stiff and by the time the screaming guitar solo comes in, it's obvious this is not the approach that best suits the singer or her songs. Nor does the rock beat and big hooks of a misdirected slice of generic radio rock. The majority of the album fares much better, with 's distinctive piano and heartfelt, often gritty vocals belting out tunes with spare accompaniment. The string quartet on seems organically relaxed and remains appropriately low-key throughout the duet. The yearning of recalls the simple poetic honesty of both lyrically and musically. Reprising her '60s hit - co-written with - for the second time (she had already interpreted it on 1980's album) is unnecessary, but the solo piano backing illustrates the song's timeless qualities and fits nicely into this disc's overall flow. Certainly her classiest and most consistent collection since the late '70s, proves that with a songwriter as accomplished as , less remains more.

Release of the album: 2001, September, 25 [CD Rockingale Records, Cat.# [url=http://www.discogs.com/Carole-King-Love-Makes-The-World/release/2951524]KOC-CD-8346, USA]
Release of this CD: 2007, November, 5 [CD Victor Entertainment (Japan), Cat.# VICP-63998 / EAN: 4988002537051]
℗ & © 2001 Rockingale Records

Carole King - Love Makes The World (2001) [2007, Japanese Paper Sleeve]


Producers – Babyface (tracks: 2), Carole King, David Foster (tracks: 7), Humberto Gatica (tracks: 1, 3 to 12), Pop Rox (tracks: 1)

Carole King – Piano, Vocals, Backing Vocals, Vocal & String Arrangement
Kenny "Babyface" Edmonds – Keyboards, Backing Vocals, Vocal Arrangement, Guitar, drums, Programming
David Foster – Piano, Keyboards
Randy Waldman – Keyboards, Programming
Paul Brady – Piano, Electric Piano, Backing Vocals, Vocal Arrangement
C.J. Vanston – Piano, Programming, Track Arrangement
Steve Hamilton, Dean Parks – Acoustic Guitar & Electric Guitar
Gary Burr – Acoustic Guitar, Backing Vocals, Vocal Arrangement
Michael Landau, Rudy Guess – Guitar, Electric Guitar
Rusty Anderson, Paul Jackson, Jr. – Electric Guitar
Greg Wells – Guitar, Drums
Charlie Larkey – Acoustic Bass, Bass
Nathan East, Armand Sabal-Lecco – Bass
Russ Kunkel – Drums
Michael Fisher, Duke Mushroom – Percussion
David Boruff – Saxophone
Jim Thatcher – French Horn
Barbara Northcutt – Oboe
David Shostac – Flute
Endre Granat, Julie Ann Gigante, Jacqueline Brand, Miran Kojian, Rafael Rishik, Amy Hershberger – Violin
Brian Dembow, David Walther – Viola
John Walz, Armen Ksajikian – Cello
Dan Woods – Backing Vocals
Simon Franglen, Dave Schommer, Lester Mendez – Programming
Michael McCoy – Drum Programming
Wynton Marsalis – Trumpet on "I Wasn't Gonna Fallin' Love"
Celine Dion – Vocals, Backing Vocals on "The Reason"
k.d. lang – Vocals on "An Uncommon Love"
Steven Tyler – Backing Vocals on "Monday Without You"
Mark Hudson – Backing Vocals, Vocal Arrangement


Carole King - Love Makes The World (2001) [2007, Japanese Paper Sleeve]


Tracklist:

01. Love Makes the World (01:59)
(Sam Hollander, Carole King, Dave Schommer)
02. You Can Do Anything (03:42)
(Babyface, Carole King, Carole Bayer Sager)
03. The Reason (04:23)
(Mark Hudson, Carole King, Greg Wells)
04. I Wasn't Gonna Fall In Love (03:18)
(Carole King, Carole Bayer Sager)
05. I Don't Know (03:24)
(Paul Brady, Gary Burr, Mark Hudson, Carole King)
06. Oh No Not My Baby (04:20)
(Gerry Goffin, Carole King)
07. It Could Have Been Anyone (04:00)
(David Foster, Carole King, Carole Bayer Sager)
08. Monday Without You (04:12)
(Paul Brady, Mark Hudson, Carole King)
09. An Uncommon Love (04:13)
(Rob Hyman, Carole King, Rich Wayland)
10. You Will Find Me There (08:41)
(Joel Campbell, Carole King)
11. Safe Again (05:32)
(Carole King)
12. This Time (03:38)
(Carole King)

Exact Audio Copy V1.0 beta 3 from 29. August 2011

EAC extraction logfile from 18. May 2015, 22:51

Carole King / Love Makes The World

Used drive : HL-DT-STDVDRAM GH24NS90 Adapter: 1 ID: 0

Read mode : Secure
Utilize accurate stream : Yes
Defeat audio cache : No
Make use of C2 pointers : Yes

Read offset correction : 6
Overread into Lead-In and Lead-Out : No
Fill up missing offset samples with silence : Yes
Delete leading and trailing silent blocks : No
Null samples used in CRC calculations : Yes
Used interface : Native Win32 interface for Win NT & 2000
Gap handling : Appended to previous track

Used output format : User Defined Encoder
Selected bitrate : 1024 kBit/s
Quality : High
Add ID3 tag : No
Command line compressor : C:\Program Files (x86)\FLAC\metaflac.exe
Additional command line options : -8


TOC of the extracted CD

Track | Start | Length | Start sector | End sector
––––––––––––––––––––––––––––-
1 | 0:00.00 | 4:23.70 | 0 | 19794
2 | 4:23.70 | 3:58.05 | 19795 | 37649
3 | 8:22.00 | 4:39.15 | 37650 | 58589
4 | 13:01.15 | 4:04.30 | 58590 | 76919
5 | 17:05.45 | 3:04.30 | 76920 | 90749
6 | 20:10.00 | 3:28.40 | 90750 | 106389
7 | 23:38.40 | 3:53.25 | 106390 | 123889
8 | 27:31.65 | 4:02.15 | 123890 | 142054
9 | 31:34.05 | 3:34.15 | 142055 | 158119
10 | 35:08.20 | 4:25.10 | 158120 | 178004
11 | 39:33.30 | 2:42.10 | 178005 | 190164
12 | 42:15.40 | 3:43.70 | 190165 | 206959


Track 1

Filename C:\Exact Audio Copy\Carole King\Love Makes The World\01. Love Makes The World.wav

Pre-gap length 0:00:02.00

Peak level 100.0 %
Extraction speed 3.6 X
Track quality 100.0 %
Test CRC D79A9A56
Copy CRC D79A9A56
Accurately ripped (confidence 1) [CEBA6B2D] (AR v2)
Copy OK

Track 2

Filename C:\Exact Audio Copy\Carole King\Love Makes The World\02. You Can Do Anything.wav

Pre-gap length 0:00:00.15

Peak level 98.1 %
Extraction speed 4.2 X
Track quality 100.0 %
Test CRC 0222F556
Copy CRC 0222F556
Accurately ripped (confidence 1) [9486102B] (AR v2)
Copy OK

Track 3

Filename C:\Exact Audio Copy\Carole King\Love Makes The World\03. The Reason.wav

Pre-gap length 0:00:00.35

Peak level 99.2 %
Extraction speed 4.6 X
Track quality 100.0 %
Test CRC 46E8029E
Copy CRC 46E8029E
Accurately ripped (confidence 1) [BA88B1C0] (AR v2)
Copy OK

Track 4

Filename C:\Exact Audio Copy\Carole King\Love Makes The World\04. I Wasn't Gonna Fall In Love.wav

Pre-gap length 0:00:01.20

Peak level 99.2 %
Extraction speed 4.8 X
Track quality 99.9 %
Test CRC 99E578F0
Copy CRC 99E578F0
Accurately ripped (confidence 1) [33DD5E00] (AR v2)
Copy OK

Track 5

Filename C:\Exact Audio Copy\Carole King\Love Makes The World\05. I Don't Know.wav

Peak level 100.0 %
Extraction speed 5.0 X
Track quality 100.0 %
Test CRC 73092A5C
Copy CRC 73092A5C
Accurately ripped (confidence 1) [FDF7EADF] (AR v2)
Copy OK

Track 6

Filename C:\Exact Audio Copy\Carole King\Love Makes The World\06. Oh No Not My Baby.wav

Pre-gap length 0:00:00.30

Peak level 99.2 %
Extraction speed 5.5 X
Track quality 100.0 %
Test CRC 64B782AB
Copy CRC 64B782AB
Accurately ripped (confidence 1) [249C2125] (AR v2)
Copy OK

Track 7

Filename C:\Exact Audio Copy\Carole King\Love Makes The World\07. It Could Have Been Anyone.wav

Pre-gap length 0:00:00.40

Peak level 100.0 %
Extraction speed 5.8 X
Track quality 100.0 %
Test CRC 06CAE796
Copy CRC 06CAE796
Accurately ripped (confidence 1) [8035CCEB] (AR v2)
Copy OK

Track 8

Filename C:\Exact Audio Copy\Carole King\Love Makes The World\08. Monday Without You.wav

Pre-gap length 0:00:00.40

Peak level 99.2 %
Extraction speed 5.8 X
Track quality 99.9 %
Test CRC EF2531C1
Copy CRC EF2531C1
Accurately ripped (confidence 1) [B24733DD] (AR v2)
Copy OK

Track 9

Filename C:\Exact Audio Copy\Carole King\Love Makes The World\09. An Uncommon Love.wav

Pre-gap length 0:00:01.15

Peak level 99.2 %
Extraction speed 6.3 X
Track quality 100.0 %
Test CRC 261BF1C1
Copy CRC 261BF1C1
Accurately ripped (confidence 1) [22AA6E64] (AR v2)
Copy OK

Track 10

Filename C:\Exact Audio Copy\Carole King\Love Makes The World\10. You Will Find Me There.wav

Pre-gap length 0:00:00.15

Peak level 98.1 %
Extraction speed 6.3 X
Track quality 99.9 %
Test CRC A5B557F2
Copy CRC A5B557F2
Accurately ripped (confidence 1) [48415373] (AR v2)
Copy OK

Track 11

Filename C:\Exact Audio Copy\Carole King\Love Makes The World\11. Safe Again.wav

Pre-gap length 0:00:00.25

Peak level 99.2 %
Extraction speed 6.4 X
Track quality 100.0 %
Test CRC 6A6E0C87
Copy CRC 6A6E0C87
Accurately ripped (confidence 1) [1532F107] (AR v2)
Copy OK

Track 12

Filename C:\Exact Audio Copy\Carole King\Love Makes The World\12. This Time.wav

Pre-gap length 0:00:00.10

Peak level 99.2 %
Extraction speed 6.7 X
Track quality 100.0 %
Test CRC 6D60F515
Copy CRC 6D60F515
Accurately ripped (confidence 1) [B9C532E0] (AR v2)
Copy OK


All tracks accurately ripped

No errors occurred

End of status report

==== Log checksum ED0972722E1A9BF6841B72A34F9D94DE515410828A72FA87A6E8D2D581BAD5BE ====

foobar2000 1.3.7 / Dynamic Range Meter 1.1.1
log date: 2015-07-06 11:12:54

––––––––––––––––––––––––––––––––––––––––
Analyzed: Carole King / Love Makes The World
––––––––––––––––––––––––––––––––––––––––

DR Peak RMS Duration Track
––––––––––––––––––––––––––––––––––––––––
DR8 0.00 dB -9.92 dB 4:24 01-Love Makes The World
DR8 -0.17 dB -10.15 dB 3:58 02-You Can Do Anything
DR6 -0.07 dB -9.52 dB 4:39 03-The Reason
DR8 -0.07 dB -9.58 dB 4:04 04-I Wasn't Gonna Fall In Love
DR8 0.00 dB -10.19 dB 3:04 05-I Don't Know
DR10 -0.07 dB -13.34 dB 3:29 06-Oh No Not My Baby
DR7 0.00 dB -10.01 dB 3:53 07-It Could Have Been Anyone
DR5 -0.07 dB -6.59 dB 4:02 08-Monday Without You
DR12 -0.07 dB -15.10 dB 3:34 09-An Uncommon Love
DR7 -0.17 dB -8.80 dB 4:25 10-You Will Find Me There
DR8 -0.07 dB -12.06 dB 2:42 11-Safe Again
DR8 -0.07 dB -11.44 dB 3:44 12-This Time
––––––––––––––––––––––––––––––––––––––––

Number of tracks: 12
Official DR value: DR8

Samplerate: 44100 Hz
Channels: 2
Bits per sample: 16
Bitrate: 824 kbps
Codec: FLAC
================================================================================


All thanks to - saintsmon


password: BlondStyle

Uploadable