Carole King - The Best Of Carole King (2007) [Japan, EICP-850]

Posted By: BlondStyle
Carole King - The Best Of Carole King (2007) [Japan, EICP-850]

Carole King - The Best Of Carole King (2007) [Japan, EICP-850]
Pop/Rock, Singer/Songwriter | EAC Rip | FLAC, Tracks+CUE + LOG + Artwork-600dpi (JPEG) | 75:24 Min | 568,77 Mb
Label: Sony BMG Music Entertainment (Japan) | Released: 2007, September, 19
Carole King - The Best Of Carole King (2007) [Japan, EICP-850]

Japanese-only collection from the singer/songwriter who helped to change the course of Pop music with her songwriting skills during the '60s and her own solo recordings in the '70s. 21 tracks including , , , , and many more. collects 21 tracks recorded during the singer's tenure with in the '70s. Included are the original versions of and Since numerous collections easily available, pass on this single disc compilation from Epic Japan.

Carole King - The Best Of Carole King (2007) [Japan, EICP-850]


Release of this CD: 2007, September, 19 [CD Sony BMG Music Entertainment (Japan), Cat.# EICP-850 / EAN: 4547366032451]
℗© 2007 Sony BMG Music Entertainment
Manufactured By – Sony Music Japan International Inc.

Carole King - The Best Of Carole King (2007) [Japan, EICP-850]


Tracklist:

01. So Far Away (03:57)
(Carole King)
02. I Feel The Earth Move (03:00)
(Carole King)
03. You've Got A Friend (05:10)
(Carole King)
04. It's Too Late (03:54)
(Carole King / Toni Stern)
05. Sweet Seasons (03:16)
(Carole King / Toni Stern)
06. Will You Love Me Tomorrow? (04:13)
(Carole King / Gerry Goffin)
07. Brother, Brother (03:01)
(Carole King)
08. Only Love Is Real (03:32)
(Carole King)
09. It's Going To Take Some Time (03:36)
(Carole King / Toni Stern)
10. Beautiful (03:09)
(Carole King)
11. Jazzman (03:46)
(Carole King / Dave Palmer)
12. Nightingale (03:38)
(Carole King / Dave Palmer)
13. Been To Canaan (03:39)
(Carole King)
14. Some Kind Of Wonderful (03:08)
(Carole King / Gerry Goffin)
15. Carry Your Load (02:52)
(Carole King)
16. Smackwater Jack (03:44)
(Carole King / Gerry Goffin)
17. Corazon (03:59)
(Carole King)
18. Up On The Roof (03:39)
(Carole King / Gerry Goffin)
19. Music (03:52)
(Carole King)
20. Home Again (02:31)
(Carole King)
21. (You Make Me Feel Like) A Natural Woman (03:49)
(Carole King / Gerry Goffin / Jerry Wexler)

Exact Audio Copy V1.0 beta 3 from 29. August 2011

EAC extraction logfile from 30. May 2015, 0:36

Carole King / The Best Of Carole King

Used drive : HL-DT-STDVDRAM GH24NS90 Adapter: 1 ID: 0

Read mode : Secure
Utilize accurate stream : Yes
Defeat audio cache : No
Make use of C2 pointers : Yes

Read offset correction : 6
Overread into Lead-In and Lead-Out : No
Fill up missing offset samples with silence : Yes
Delete leading and trailing silent blocks : No
Null samples used in CRC calculations : Yes
Used interface : Native Win32 interface for Win NT & 2000
Gap handling : Appended to previous track

Used output format : User Defined Encoder
Selected bitrate : 1024 kBit/s
Quality : High
Add ID3 tag : No
Command line compressor : C:\Program Files (x86)\FLAC\metaflac.exe
Additional command line options : -8


TOC of the extracted CD

Track | Start | Length | Start sector | End sector
––––––––––––––––––––––––––––-
1 | 0:00.00 | 3:57.15 | 0 | 17789
2 | 3:57.15 | 2:59.40 | 17790 | 31254
3 | 6:56.55 | 5:10.14 | 31255 | 54518
4 | 12:06.69 | 3:54.36 | 54519 | 72104
5 | 16:01.30 | 3:15.60 | 72105 | 86789
6 | 19:17.15 | 4:12.67 | 86790 | 105756
7 | 23:30.07 | 3:00.63 | 105757 | 119319
8 | 26:30.70 | 3:32.35 | 119320 | 135254
9 | 30:03.30 | 3:35.45 | 135255 | 151424
10 | 33:39.00 | 3:08.70 | 151425 | 165594
11 | 36:47.70 | 3:46.35 | 165595 | 182579
12 | 40:34.30 | 3:38.35 | 182580 | 198964
13 | 44:12.65 | 3:39.21 | 198965 | 215410
14 | 47:52.11 | 3:07.53 | 215411 | 229488
15 | 50:59.64 | 2:52.02 | 229489 | 242390
16 | 53:51.66 | 3:43.62 | 242391 | 259177
17 | 57:35.53 | 3:58.58 | 259178 | 277085
18 | 61:34.36 | 3:39.10 | 277086 | 293520
19 | 65:13.46 | 3:51.43 | 293521 | 310888
20 | 69:05.14 | 2:30.70 | 310889 | 322208
21 | 71:36.09 | 3:48.40 | 322209 | 339348


Track 1

Filename C:\Exact Audio Copy\Carole King\The Best Of Carole King\01. So Far Away.wav

Pre-gap length 0:00:02.00

Peak level 95.8 %
Extraction speed 4.1 X
Track quality 100.0 %
Test CRC C6DBBAFF
Copy CRC C6DBBAFF
Accurately ripped (confidence 5) [109A429F] (AR v2)
Copy OK

Track 2

Filename C:\Exact Audio Copy\Carole King\The Best Of Carole King\02. I Feel The Earth Move.wav

Pre-gap length 0:00:01.24

Peak level 96.0 %
Extraction speed 4.6 X
Track quality 100.0 %
Test CRC BDF9649D
Copy CRC BDF9649D
Accurately ripped (confidence 5) [BE0EE3ED] (AR v2)
Copy OK

Track 3

Filename C:\Exact Audio Copy\Carole King\The Best Of Carole King\03. You've Got A Friend.wav

Pre-gap length 0:00:01.24

Peak level 94.4 %
Extraction speed 5.0 X
Track quality 100.0 %
Test CRC 3C0C9F7C
Copy CRC 3C0C9F7C
Accurately ripped (confidence 5) [B3F29EBC] (AR v2)
Copy OK

Track 4

Filename C:\Exact Audio Copy\Carole King\The Best Of Carole King\04. It's Too Late.wav

Pre-gap length 0:00:01.23

Peak level 91.7 %
Extraction speed 5.2 X
Track quality 100.0 %
Test CRC 3A638A59
Copy CRC 3A638A59
Accurately ripped (confidence 5) [8E32ED32] (AR v2)
Copy OK

Track 5

Filename C:\Exact Audio Copy\Carole King\The Best Of Carole King\05. Sweet Seasons.wav

Pre-gap length 0:00:01.24

Peak level 95.8 %
Extraction speed 5.7 X
Track quality 100.0 %
Test CRC FDBBEA12
Copy CRC FDBBEA12
Accurately ripped (confidence 5) [9A8904FA] (AR v2)
Copy OK

Track 6

Filename C:\Exact Audio Copy\Carole King\The Best Of Carole King\06. Will You Love Me Tomorrow.wav

Pre-gap length 0:00:01.23

Peak level 95.4 %
Extraction speed 5.9 X
Track quality 100.0 %
Test CRC D1931BFB
Copy CRC D1931BFB
Accurately ripped (confidence 5) [0AFFE4D2] (AR v2)
Copy OK

Track 7

Filename C:\Exact Audio Copy\Carole King\The Best Of Carole King\07. Brother, Brother.wav

Pre-gap length 0:00:01.22

Peak level 95.5 %
Extraction speed 6.0 X
Track quality 100.0 %
Test CRC BD105E26
Copy CRC BD105E26
Accurately ripped (confidence 5) [E68BD566] (AR v2)
Copy OK

Track 8

Filename C:\Exact Audio Copy\Carole King\The Best Of Carole King\08. Only Love Is Real.wav

Pre-gap length 0:00:01.24

Peak level 96.1 %
Extraction speed 6.3 X
Track quality 100.0 %
Test CRC D2E132C5
Copy CRC D2E132C5
Accurately ripped (confidence 5) [DCEB2129] (AR v2)
Copy OK

Track 9

Filename C:\Exact Audio Copy\Carole King\The Best Of Carole King\09. It's Going To Take Some Time.wav

Pre-gap length 0:00:01.23

Peak level 95.6 %
Extraction speed 6.5 X
Track quality 100.0 %
Test CRC 2C3DE752
Copy CRC 2C3DE752
Accurately ripped (confidence 5) [1D42AEB5] (AR v2)
Copy OK

Track 10

Filename C:\Exact Audio Copy\Carole King\The Best Of Carole King\10. Beautiful.wav

Pre-gap length 0:00:01.24

Peak level 100.0 %
Extraction speed 6.7 X
Track quality 100.0 %
Test CRC D9152B51
Copy CRC D9152B51
Accurately ripped (confidence 5) [1A6B63DA] (AR v2)
Copy OK

Track 11

Filename C:\Exact Audio Copy\Carole King\The Best Of Carole King\11. Jazzman.wav

Pre-gap length 0:00:01.23

Peak level 95.6 %
Extraction speed 7.0 X
Track quality 100.0 %
Test CRC 7A43E7A1
Copy CRC 7A43E7A1
Accurately ripped (confidence 5) [90914732] (AR v2)
Copy OK

Track 12

Filename C:\Exact Audio Copy\Carole King\The Best Of Carole King\12. Nightingale.wav

Pre-gap length 0:00:01.22

Peak level 95.9 %
Extraction speed 7.2 X
Track quality 100.0 %
Test CRC 6BACD23B
Copy CRC 6BACD23B
Accurately ripped (confidence 5) [AB0F581C] (AR v2)
Copy OK

Track 13

Filename C:\Exact Audio Copy\Carole King\The Best Of Carole King\13. Been To Canaan.wav

Pre-gap length 0:00:01.24

Peak level 90.9 %
Extraction speed 7.7 X
Track quality 100.0 %
Test CRC CD01D8CA
Copy CRC CD01D8CA
Accurately ripped (confidence 5) [2615BFA8] (AR v2)
Copy OK

Track 14

Filename C:\Exact Audio Copy\Carole King\The Best Of Carole King\14. Some Kind Of Wonderful.wav

Pre-gap length 0:00:01.23

Peak level 95.1 %
Extraction speed 7.5 X
Track quality 99.8 %
Test CRC EC87B03E
Copy CRC EC87B03E
Accurately ripped (confidence 5) [2C87CF50] (AR v2)
Copy OK

Track 15

Filename C:\Exact Audio Copy\Carole King\The Best Of Carole King\15. Carry Your Load.wav

Pre-gap length 0:00:01.23

Peak level 95.0 %
Extraction speed 7.6 X
Track quality 100.0 %
Test CRC 5956C7D9
Copy CRC 5956C7D9
Accurately ripped (confidence 5) [26536EB0] (AR v2)
Copy OK

Track 16

Filename C:\Exact Audio Copy\Carole King\The Best Of Carole King\16. Smackwater Jack.wav

Pre-gap length 0:00:01.23

Peak level 100.0 %
Extraction speed 8.3 X
Track quality 100.0 %
Test CRC 1E30C55A
Copy CRC 1E30C55A
Accurately ripped (confidence 5) [1D959C25] (AR v2)
Copy OK

Track 17

Filename C:\Exact Audio Copy\Carole King\The Best Of Carole King\17. Corazon.wav

Pre-gap length 0:00:01.21

Peak level 85.6 %
Extraction speed 8.5 X
Track quality 100.0 %
Test CRC AFE83FB6
Copy CRC AFE83FB6
Accurately ripped (confidence 5) [1345F724] (AR v2)
Copy OK

Track 18

Filename C:\Exact Audio Copy\Carole King\The Best Of Carole King\18. Up On The Roof.wav

Pre-gap length 0:00:01.21

Peak level 97.2 %
Extraction speed 8.3 X
Track quality 100.0 %
Test CRC A5A2663D
Copy CRC A5A2663D
Accurately ripped (confidence 5) [71915259] (AR v2)
Copy OK

Track 19

Filename C:\Exact Audio Copy\Carole King\The Best Of Carole King\19. Music.wav

Pre-gap length 0:00:01.22

Peak level 95.3 %
Extraction speed 8.5 X
Track quality 100.0 %
Test CRC 573B15A6
Copy CRC 573B15A6
Accurately ripped (confidence 5) [1F545BB4] (AR v2)
Copy OK

Track 20

Filename C:\Exact Audio Copy\Carole King\The Best Of Carole King\20. Home Again.wav

Pre-gap length 0:00:01.24

Peak level 95.4 %
Extraction speed 8.6 X
Track quality 100.0 %
Test CRC 8AB12BDF
Copy CRC 8AB12BDF
Accurately ripped (confidence 5) [6D957CB5] (AR v2)
Copy OK

Track 21

Filename C:\Exact Audio Copy\Carole King\The Best Of Carole King\21. (You Make Me Feel Like) A Natural Woman.wav

Pre-gap length 0:00:01.23

Peak level 95.0 %
Extraction speed 9.3 X
Track quality 100.0 %
Test CRC 0F183DD4
Copy CRC 0F183DD4
Accurately ripped (confidence 5) [09E04881] (AR v2)
Copy OK


All tracks accurately ripped

No errors occurred

End of status report

==== Log checksum 6FCC7EC06F5D2BFB3FBE0D942D99FE1032002321442B6FD17CDDF98CD3C9E1D8 ====

foobar2000 1.3.7 / Dynamic Range Meter 1.1.1
log date: 2015-08-26 20:20:27

––––––––––––––––––––––––––––––––––––––––
Analyzed: Carole King / The Best Of Carole King
––––––––––––––––––––––––––––––––––––––––

DR Peak RMS Duration Track
––––––––––––––––––––––––––––––––––––––––
DR8 -0.37 dB -11.06 dB 3:57 01-So Far Away
DR8 -0.35 dB -10.08 dB 3:00 02-I Feel The Earth Move
DR8 -0.50 dB -10.82 dB 5:10 03-You've Got A Friend
DR7 -0.75 dB -10.46 dB 3:54 04-It's Too Late
DR9 -0.37 dB -10.75 dB 3:16 05-Sweet Seasons
DR8 -0.41 dB -11.49 dB 4:13 06-Will You Love Me Tomorrow
DR8 -0.39 dB -10.49 dB 3:01 07-Brother, Brother
DR7 -0.34 dB -9.82 dB 3:32 08-Only Love Is Real
DR10 -0.39 dB -12.91 dB 3:36 09-It's Going To Take Some Time
DR10 0.00 dB -11.90 dB 3:09 10-Beautiful
DR8 -0.39 dB -9.62 dB 3:46 11-Jazzman
DR8 -0.36 dB -9.53 dB 3:38 12-Nightingale
DR8 -0.82 dB -10.35 dB 3:39 13-Been To Canaan
DR10 -0.43 dB -13.41 dB 3:08 14-Some Kind Of Wonderful
DR10 -0.44 dB -12.53 dB 2:52 15-Carry Your Load
DR9 0.00 dB -10.77 dB 3:44 16-Smackwater Jack
DR8 -1.34 dB -12.49 dB 3:59 17-Corazon
DR9 -0.24 dB -11.23 dB 3:39 18-Up On The Roof
DR7 -0.42 dB -9.50 dB 3:52 19-Music
DR9 -0.40 dB -12.32 dB 2:31 20-Home Again
DR10 -0.44 dB -13.27 dB 3:49 21-(You Make Me Feel Like) A Natural Woman
––––––––––––––––––––––––––––––––––––––––

Number of tracks: 21
Official DR value: DR9

Samplerate: 44100 Hz
Channels: 2
Bits per sample: 16
Bitrate: 767 kbps
Codec: FLAC
================================================================================


All thanks to - saintsmon


password: BlondStyle

Uploadable