Subcategories

Carole King - The Legendary Demos (2012)

Posted By: BlondStyle
Carole King - The Legendary Demos (2012)

Carole King - The Legendary Demos (2012)
Pop/Rock, Singer/Songwriter | EAC Rip | FLAC, Tracks+CUE+LOG+Covers (Back&Front) (JPEG)+Digital Booklet (PDF) | 39:40 | 207,03 Mb
Label: Hear Music (EU) | Released: 2012, April, 24

This astounding collection of 13 original recordings by featuring many of her most famous songs is finally being released for the very first time! proves once and for all precisely why she is the most successful and revered female singer/songwriter in music history. Includes the original demoed recordings of such future standards as and more. Also features early takes of six tracks that formed the basis for King's worldwide solo breakthrough ; one of the best-selling and most beloved albums of all time. This collection forms the lost missing link in the chain of 's career.

Carole King - The Legendary Demos (2012)


Carole King - The Legendary Demos (2012)


Release of this CD: 2012, April, 24 [CD Hear Music (EU), Cat.# 0888072338456 / UPC: 888072338456]
℗ & © 2012 Rockingale Records. Under exclusive license to StarCon, LLC
Made in the EU, Mastered At – The Mastering Lab

Art Direction, Design – Greg Allen
Creative Director – Larissa Collins
Engineer [Audio Restoration] – Nathaniel Kunkel
Management – Sherry Kondor
Mastered By – Doug Sax, Robert Hadley
Other [Project Assistance] – Michael Johnson, Patrick Milligan
Photography By – Jim McCrary

Tracklist:

01. Pleasant Valley Sunday (02:29)
(Carole King, Gerry Goffin)
02. So Goes Love (02:54)
(Carole King, Gerry Goffin)
03. Take Good Care Of My Baby (02:20)
(Carole King, Gerry Goffin)
04. (You Make Me Feel Like) A Natural Woman (02:54)
(Carole King, Gerry Goffin, Jerry Wexler)
05. Like Little Children (03:15)
(Carole King, Gerry Goffin)
06. Beautiful (02:25)
(Carole King)
07. Crying In The Rain (01:51)
(Carole King, Howard Greenfield)
08. Way Over Yonder (03:26)
(Carole King)
09. Yours Until Tomorrow (03:18)
(Carole King, Gerry Goffin)
10. It's Too Late (03:31)
(Carole King, Toni Stern)
11. Tapestry (03:02)
(Carole King)
12. Just Once In My Life (04:04)
(Carole King, Gerry Goffin, Phil Spector)
13. You've Got A Friend (04:10)
(Carole King)

Exact Audio Copy V1.0 beta 2 from 29. April 2011

EAC extraction logfile from 11. May 2012, 7:57

Carole King / The Legendary Demos

Used drive : HL-DT-STDVDRAM GSA-4163B Adapter: 1 ID: 0

Read mode : Secure
Utilize accurate stream : Yes
Defeat audio cache : No
Make use of C2 pointers : Yes

Read offset correction : 667
Overread into Lead-In and Lead-Out : No
Fill up missing offset samples with silence : Yes
Delete leading and trailing silent blocks : No
Null samples used in CRC calculations : No
Used interface : Native Win32 interface for Win NT & 2000
Gap handling : Not detected, thus appended to previous track

Used output format : User Defined Encoder
Selected bitrate : 768 kBit/s
Quality : High
Add ID3 tag : No
Command line compressor : C:\Program Files\Exact Audio Copy\FLAC\FLAC.EXE
Additional command line options : -6 -V -T "ARTIST=%artist%" -T "TITLE=%title%" -T "ALBUM=%albumtitle%" -T "DATE=%year%" -T "TRACKNUMBER=%tracknr%" -T "GENRE=%genre%" -T "COMMENT=%comment%" -T "BAND=%albuminterpret%" -T "COMPOSER=%composer%" %haslyrics%–ta


TOC of the extracted CD

Track | Start | Length | Start sector | End sector
––––––––––––––––––––––––––––-
1 | 0:00.00 | 2:28.43 | 0 | 11142
2 | 2:28.43 | 2:54.37 | 11143 | 24229
3 | 5:23.05 | 2:19.58 | 24230 | 34712
4 | 7:42.63 | 2:54.06 | 34713 | 47768
5 | 10:36.69 | 3:14.65 | 47769 | 62383
6 | 13:51.59 | 2:24.60 | 62384 | 73243
7 | 16:16.44 | 1:51.10 | 73244 | 81578
8 | 18:07.54 | 3:26.26 | 81579 | 97054
9 | 21:34.05 | 3:18.26 | 97055 | 111930
10 | 24:52.31 | 3:31.19 | 111931 | 127774
11 | 28:23.50 | 3:02.27 | 127775 | 141451
12 | 31:26.02 | 4:04.37 | 141452 | 159788
13 | 35:30.39 | 4:09.65 | 159789 | 178528


Track 1

Filename C:\Exact Audio Copy\Carole King\The Legendary Demos\01. Pleasant Valley Sunday.wav

Peak level 94.2 %
Extraction speed 18.0 X
Track quality 100.0 %
Copy CRC 386978CE
Track not present in AccurateRip database
Copy OK

Track 2

Filename C:\Exact Audio Copy\Carole King\The Legendary Demos\02. So Goes Love.wav

Peak level 95.3 %
Extraction speed 17.4 X
Track quality 100.0 %
Copy CRC F128EB75
Track not present in AccurateRip database
Copy OK

Track 3

Filename C:\Exact Audio Copy\Carole King\The Legendary Demos\03. Take Good Care of My Baby.wav

Peak level 96.3 %
Extraction speed 18.0 X
Track quality 100.0 %
Copy CRC 84BC7B20
Track not present in AccurateRip database
Copy OK

Track 4

Filename C:\Exact Audio Copy\Carole King\The Legendary Demos\04. (You Make Me Feel Like) A Natural Woman.wav

Peak level 89.5 %
Extraction speed 22.0 X
Track quality 100.0 %
Copy CRC 8570A1FA
Track not present in AccurateRip database
Copy OK

Track 5

Filename C:\Exact Audio Copy\Carole King\The Legendary Demos\05. Like Little Children.wav

Peak level 79.7 %
Extraction speed 21.3 X
Track quality 100.0 %
Copy CRC FA2E371A
Track not present in AccurateRip database
Copy OK

Track 6

Filename C:\Exact Audio Copy\Carole King\The Legendary Demos\06. Beautiful.wav

Peak level 93.2 %
Extraction speed 24.4 X
Track quality 100.0 %
Copy CRC 07CE777C
Track not present in AccurateRip database
Copy OK

Track 7

Filename C:\Exact Audio Copy\Carole King\The Legendary Demos\07. Crying in the Rain.wav

Peak level 80.2 %
Extraction speed 21.3 X
Track quality 100.0 %
Copy CRC B219F5A2
Track not present in AccurateRip database
Copy OK

Track 8

Filename C:\Exact Audio Copy\Carole King\The Legendary Demos\08. Way Over Yonder.wav

Peak level 84.9 %
Extraction speed 23.9 X
Track quality 100.0 %
Copy CRC B7463919
Track not present in AccurateRip database
Copy OK

Track 9

Filename C:\Exact Audio Copy\Carole King\The Legendary Demos\09. Yours Until Tomorrow.wav

Peak level 99.6 %
Extraction speed 24.5 X
Track quality 100.0 %
Copy CRC C568B27B
Track not present in AccurateRip database
Copy OK

Track 10

Filename C:\Exact Audio Copy\Carole King\The Legendary Demos\10. It's Too Late.wav

Peak level 83.6 %
Extraction speed 25.7 X
Track quality 99.8 %
Copy CRC ECBCAF4B
Track not present in AccurateRip database
Copy OK

Track 11

Filename C:\Exact Audio Copy\Carole King\The Legendary Demos\11. Tapestry.wav

Peak level 92.2 %
Extraction speed 29.9 X
Track quality 100.0 %
Copy CRC 59AFDF50
Track not present in AccurateRip database
Copy OK

Track 12

Filename C:\Exact Audio Copy\Carole King\The Legendary Demos\12. Just Once in My Life.wav

Peak level 79.6 %
Extraction speed 31.4 X
Track quality 100.0 %
Copy CRC 589BAA34
Track not present in AccurateRip database
Copy OK

Track 13

Filename C:\Exact Audio Copy\Carole King\The Legendary Demos\13. You've Got a Friend.wav

Peak level 93.0 %
Extraction speed 32.4 X
Track quality 99.9 %
Copy CRC 85FFC933
Track not present in AccurateRip database
Copy OK


None of the tracks are present in the AccurateRip database

No errors occurred

End of status report

foobar2000 1.3.7 / Dynamic Range Meter 1.1.1
log date: 2015-08-30 23:31:38

––––––––––––––––––––––––––––––––––––––––
Analyzed: Carole King / The Legendary Demos
––––––––––––––––––––––––––––––––––––––––

DR Peak RMS Duration Track
––––––––––––––––––––––––––––––––––––––––
DR9 -0.52 dB -10.61 dB 2:29 01-Pleasant Valley Sunday
DR9 -0.42 dB -10.57 dB 2:54 02-So Goes Love
DR10 -0.32 dB -11.61 dB 2:20 03-Take Good Care of My Baby
DR8 -0.96 dB -10.20 dB 2:54 04-(You Make Me Feel Like) A Natural Woman
DR7 -1.96 dB -10.34 dB 3:15 05-Like Little Children
DR9 -0.61 dB -10.82 dB 2:25 06-Beautiful
DR9 -1.91 dB -11.44 dB 1:51 07-Crying in the Rain
DR9 -1.42 dB -11.83 dB 3:26 08-Way Over Yonder
DR10 -0.03 dB -11.17 dB 3:18 09-Yours Until Tomorrow
DR8 -1.55 dB -11.11 dB 3:31 10-It's Too Late
DR10 -0.70 dB -11.80 dB 3:02 11-Tapestry
DR7 -1.98 dB -11.06 dB 4:04 12-Just Once in My Life
DR10 -0.63 dB -12.74 dB 4:10 13-You've Got a Friend
––––––––––––––––––––––––––––––––––––––––

Number of tracks: 13
Official DR value: DR9

Samplerate: 44100 Hz
Channels: 2
Bits per sample: 16
Bitrate: 637 kbps
Codec: FLAC
================================================================================


All thanks to - saintsmon & wowzaaa


password: BlondStyle

Uploadable