Carole King - The Living Room Tour [2CD] (2005) [2007, Japanese Paper Sleeve]

Posted By: BlondStyle
Carole King - The Living Room Tour [2CD] (2005) [2007, Japanese Paper Sleeve]

Carole King - The Living Room Tour [2CD] (2005) [2007, Japanese Paper Sleeve]
Pop/Rock, Singer/Songwriter, Live | EAC Rip | FLAC, Tracks+CUE + LOG + Artwork-600dpi (JPEG) | 42:12 + 46:19 Min | 646,13 Mb
Label: Victor Entertainment (Japan) | Released: 2007, October, 31

is a live album by released in 2005. It consists of live recordings of most of the songs from . Her daughters and and background singer and guitarist joined her on several songs. This album debuted at #17 in the US, becoming 's highest-charting album since 1977. This was largely due to television advertisements and being available in Starbucks retailers. For the week of July 18, 2005 it was the #1 album on Amazon.com. It was the #2 album of July 2005 on Amazon.com. In its first week, sold 44,000 copies in the United States. It has since sold over 330,000 copies in the United States. In August 2006, the album re-entered the at #151, as it was once again available in all Starbucks locations in the US. has co-written more great songs than almost anyone. On her of 2004 she ran through some of her favorites, old and new, in a very intimate manner with just her piano or acoustic guitar for accompaniment. (She was also joined by guitarists and on acoustic guitar and occasional bass and vocals.) The double-disc set documents some highlights from various shows and works well as a career retrospective as it touches on both the songs she wrote for others and those she performed herself. There are plenty of songs from and her early-'70s albums (including the reworked which features her daughter on vocals), songs from soundtracks ( from the little-seen from ), and a couple of new compositions (the cute and ), too. was always an idiosyncratic vocalist and she sounds a little ragged around the edges here, more gritty and lived-in than you might remember but certainly not worn out. In fact, the grit adds some emotion and strength to her voice. It definitely adds a new dimension to the versions of songs she and wrote way back in the early and mid-'60s like and Her relaxed takes on these classics are highly entertaining; sounds like she is having a blast and the audience responds in kind. The medley she does of ////// is great fun and highly educational -- no, amazing might be a better word. Knowing that those songs only touch the tip of the iceberg as far as classic tunes goes is mind-blowing. Fans of will be as happy as the audiences at the shows (who quite often join in with King on the choruses of the more familiar tunes) to own this charming collection.

Release of the album: 2005, Julu, 12 [CD Rockingale Records, Cat.# [url=http://www.discogs.com/Carole-King-The-Living-Room-Tour/release/3008189]RCD2-6200-2, USA]
Release of this CD: 2007, October, 31 [CD Victor Entertainment (Japan), Cat.# VICP-63999~64000 / EAN: 4988002537068]
℗ & © 2005 Rockingale Records

Carole King - The Living Room Tour [2CD] (2005) [2007, Japanese Paper Sleeve]


Carole King - Vocal, Piano, Guitar
Rudy Guess - Vocal, Guitar, Bass
Gary Burr - Vocal, Guitar, Bass
Louise Goffin - Vocal on "Where You Lead I Will Follow"
Sherry Goffin Kondor - Vocal on "A Natural Woman"


Carole King - The Living Room Tour [2CD] (2005) [2007, Japanese Paper Sleeve]


Tracklist:

Disc One:

01. Welcome To My Living Room (01:59)
(Carole King)
02. Peace In The Valley (03:42)
(Carole King, Toni Stern)
03. Love Makes The World (04:23)
(Carole King, Dave Schommer, Sam Hollander)
04. Now And Forever (03:18)
(Carole King)
05. Where You Lead I Will Follow (feat. Louise Goffin) (03:24)
(Carole King, Toni Stern)
06. Lay Down My Life (04:20)
(Carole King)
07. Jazzman (04:00)
(Carole King, David Palmer)
08. Smackwater Jack (04:12)
(Carole King, Gerry Goffin)
09. Wishful Thinking (04:13)
(Carole King)
10. Medley- Take Good Care Of My Baby / It Might As Well Rain Until September / Go Away Little Girl / I'm Into Something Good / Hey Girl / One Fine Day / Will You Love Me Tomorrow (08:41)
(Carole King, Gerry Goffin)

Disc Two:

01. Loving You Forever (feat. Gary Burr) (03:33)
(Carole King, Gary Burr)
02. It's Too Late (05:22)
(Carole King, Toni Stern)
03. So Far Away (04:52)
(Carole King)
04. Sweet Seasons (03:21)
(Carole King, Toni Stern)
05. Chains (04:09)
(Carole King, Gerry Goffin)
06. Pleasant Valley Sunday (03:45)
(Carole King, Gerry Goffin)
07. Being At War With Each Other (04:05)
(Carole King)
08. I Feel The Earth Move (04:04)
(Carole King)
09. (You Make Me Feel Like A) Natural Woman (03:58)
(Carole King, Gerry Goffin, Jerry Wexler)
10. You've Got A Friend (05:32)
(Carole King)
11. Locomotion (03:38)
(Carole King, Gerry Goffin)

Exact Audio Copy V1.0 beta 3 from 29. August 2011

EAC extraction logfile from 27. May 2015, 22:05

Carole King / The Living Room Tour Disc 1

Used drive : HL-DT-STDVDRAM GH24NS90 Adapter: 1 ID: 0

Read mode : Secure
Utilize accurate stream : Yes
Defeat audio cache : No
Make use of C2 pointers : Yes

Read offset correction : 6
Overread into Lead-In and Lead-Out : No
Fill up missing offset samples with silence : Yes
Delete leading and trailing silent blocks : No
Null samples used in CRC calculations : Yes
Used interface : Native Win32 interface for Win NT & 2000
Gap handling : Appended to previous track

Used output format : User Defined Encoder
Selected bitrate : 1024 kBit/s
Quality : High
Add ID3 tag : No
Command line compressor : C:\Program Files (x86)\FLAC\metaflac.exe
Additional command line options : -8


TOC of the extracted CD

Track | Start | Length | Start sector | End sector
––––––––––––––––––––––––––––-
1 | 0:00.00 | 1:58.67 | 0 | 8916
2 | 1:58.67 | 3:42.25 | 8917 | 25591
3 | 5:41.17 | 4:22.60 | 25592 | 45301
4 | 10:04.02 | 3:18.03 | 45302 | 60154
5 | 13:22.05 | 3:24.25 | 60155 | 75479
6 | 16:46.30 | 4:20.22 | 75480 | 95001
7 | 21:06.52 | 4:00.08 | 95002 | 113009
8 | 25:06.60 | 4:11.60 | 113010 | 131894
9 | 29:18.45 | 4:12.45 | 131895 | 150839
10 | 33:31.15 | 8:41.05 | 150840 | 189919


Track 1

Filename C:\Exact Audio Copy\Carole King\The Living Room Tour Disc 1\01. Welcome To My Living Room.wav

Pre-gap length 0:00:02.00

Peak level 96.2 %
Extraction speed 3.4 X
Track quality 100.0 %
Test CRC F7A603A6
Copy CRC F7A603A6
Accurately ripped (confidence 2) [7FA8FF15] (AR v1)
Copy OK

Track 2

Filename C:\Exact Audio Copy\Carole King\The Living Room Tour Disc 1\02. Peace In The Valley.wav

Peak level 93.2 %
Extraction speed 3.8 X
Track quality 100.0 %
Test CRC 7901C897
Copy CRC 7901C897
Accurately ripped (confidence 2) [B092B9CB] (AR v1)
Copy OK

Track 3

Filename C:\Exact Audio Copy\Carole King\The Living Room Tour Disc 1\03. Love Makes The World.wav

Peak level 98.8 %
Extraction speed 4.2 X
Track quality 100.0 %
Test CRC E3F15448
Copy CRC E3F15448
Accurately ripped (confidence 2) [48AC5A2D] (AR v1)
Copy OK

Track 4

Filename C:\Exact Audio Copy\Carole King\The Living Room Tour Disc 1\04. Now And Forever.wav

Peak level 98.8 %
Extraction speed 4.4 X
Track quality 100.0 %
Test CRC BEFDFC61
Copy CRC BEFDFC61
Accurately ripped (confidence 2) [568C880A] (AR v1)
Copy OK

Track 5

Filename C:\Exact Audio Copy\Carole King\The Living Room Tour Disc 1\05. Where You Lead I Will Follow (w Louise Goffin).wav

Peak level 98.8 %
Extraction speed 5.0 X
Track quality 100.0 %
Test CRC 73BE45E4
Copy CRC 73BE45E4
Accurately ripped (confidence 2) [4CE345EE] (AR v1)
Copy OK

Track 6

Filename C:\Exact Audio Copy\Carole King\The Living Room Tour Disc 1\06. Lay Down My Life.wav

Peak level 98.8 %
Extraction speed 5.1 X
Track quality 100.0 %
Test CRC 752E1FF4
Copy CRC 752E1FF4
Accurately ripped (confidence 2) [04332EC5] (AR v1)
Copy OK

Track 7

Filename C:\Exact Audio Copy\Carole King\The Living Room Tour Disc 1\07. Jazzman.wav

Peak level 98.8 %
Extraction speed 5.4 X
Track quality 100.0 %
Test CRC 75BBFB56
Copy CRC 75BBFB56
Accurately ripped (confidence 2) [D2DB207E] (AR v1)
Copy OK

Track 8

Filename C:\Exact Audio Copy\Carole King\The Living Room Tour Disc 1\08. Smackwater Jack.wav

Peak level 98.8 %
Extraction speed 5.9 X
Track quality 100.0 %
Test CRC 764D1E52
Copy CRC 764D1E52
Accurately ripped (confidence 2) [AF512C79] (AR v1)
Copy OK

Track 9

Filename C:\Exact Audio Copy\Carole King\The Living Room Tour Disc 1\09. Wishful Thinking.wav

Peak level 98.8 %
Extraction speed 6.0 X
Track quality 100.0 %
Test CRC 447F22D2
Copy CRC 447F22D2
Accurately ripped (confidence 2) [0FE2A867] (AR v1)
Copy OK

Track 10

Filename C:\Exact Audio Copy\Carole King\The Living Room Tour Disc 1\10. Medley.wav

Peak level 98.8 %
Extraction speed 6.6 X
Track quality 100.0 %
Test CRC DF96EA82
Copy CRC DF96EA82
Accurately ripped (confidence 2) [82304E0A] (AR v1)
Copy OK


All tracks accurately ripped

No errors occurred

End of status report

==== Log checksum 99709DAC6A029B0FC9840573CE41CCD197A177C58C4368ED2B599C546188920C ====

Exact Audio Copy V1.0 beta 3 from 29. August 2011

EAC extraction logfile from 27. May 2015, 22:24

Carole King / The Living Room Tour Disc 2

Used drive : HL-DT-STDVDRAM GH24NS90 Adapter: 1 ID: 0

Read mode : Secure
Utilize accurate stream : Yes
Defeat audio cache : No
Make use of C2 pointers : Yes

Read offset correction : 6
Overread into Lead-In and Lead-Out : No
Fill up missing offset samples with silence : Yes
Delete leading and trailing silent blocks : No
Null samples used in CRC calculations : Yes
Used interface : Native Win32 interface for Win NT & 2000
Gap handling : Appended to previous track

Used output format : User Defined Encoder
Selected bitrate : 1024 kBit/s
Quality : High
Add ID3 tag : No
Command line compressor : C:\Program Files (x86)\FLAC\metaflac.exe
Additional command line options : -8


TOC of the extracted CD

Track | Start | Length | Start sector | End sector
––––––––––––––––––––––––––––-
1 | 0:00.00 | 3:33.25 | 0 | 15999
2 | 3:33.25 | 5:21.67 | 16000 | 40141
3 | 8:55.17 | 4:52.30 | 40142 | 62071
4 | 13:47.47 | 3:20.73 | 62072 | 77144
5 | 17:08.45 | 4:08.50 | 77145 | 95794
6 | 21:17.20 | 3:44.72 | 95795 | 112666
7 | 25:02.17 | 4:05.00 | 112667 | 131041
8 | 29:07.17 | 4:03.53 | 131042 | 149319
9 | 33:10.70 | 3:58.37 | 149320 | 167206
10 | 37:09.32 | 5:32.03 | 167207 | 192109
11 | 42:41.35 | 3:38.30 | 192110 | 208489


Track 1

Filename C:\Exact Audio Copy\Carole King\The Living Room Tour Disc 2\01. Loving You Forever (w Gary Burr).wav

Pre-gap length 0:00:02.00

Peak level 98.8 %
Extraction speed 3.5 X
Track quality 100.0 %
Test CRC 5B4566C4
Copy CRC 5B4566C4
Accurately ripped (confidence 2) [9FAB65C0] (AR v1)
Copy OK

Track 2

Filename C:\Exact Audio Copy\Carole King\The Living Room Tour Disc 2\02. It's Too Late.wav

Peak level 98.8 %
Extraction speed 4.2 X
Track quality 100.0 %
Test CRC 08310D70
Copy CRC 08310D70
Accurately ripped (confidence 2) [46407561] (AR v1)
Copy OK

Track 3

Filename C:\Exact Audio Copy\Carole King\The Living Room Tour Disc 2\03. So Far Away.wav

Peak level 98.8 %
Extraction speed 4.5 X
Track quality 100.0 %
Test CRC 073C61DB
Copy CRC 073C61DB
Accurately ripped (confidence 2) [C95B625D] (AR v1)
Copy OK

Track 4

Filename C:\Exact Audio Copy\Carole King\The Living Room Tour Disc 2\04. Sweet Seasons.wav

Peak level 98.8 %
Extraction speed 4.8 X
Track quality 100.0 %
Test CRC F8603097
Copy CRC F8603097
Accurately ripped (confidence 2) [6A64EE86] (AR v1)
Copy OK

Track 5

Filename C:\Exact Audio Copy\Carole King\The Living Room Tour Disc 2\05. Chains.wav

Peak level 100.0 %
Extraction speed 5.3 X
Track quality 100.0 %
Test CRC 7E37DFC8
Copy CRC 7E37DFC8
Cannot be verified as accurate (confidence 3) [E5162240], AccurateRip returned [F77594E4] (AR v2)
Copy OK

Track 6

Filename C:\Exact Audio Copy\Carole King\The Living Room Tour Disc 2\06. Pleasant Valley Sunday.wav

Peak level 98.8 %
Extraction speed 5.4 X
Track quality 99.9 %
Test CRC D99D1ADB
Copy CRC D99D1ADB
Accurately ripped (confidence 2) [2E3475AA] (AR v1)
Copy OK

Track 7

Filename C:\Exact Audio Copy\Carole King\The Living Room Tour Disc 2\07. Being At War With Each Other.wav

Peak level 100.0 %
Extraction speed 5.7 X
Track quality 100.0 %
Test CRC F20E620D
Copy CRC F20E620D
Accurately ripped (confidence 2) [6E50ABAB] (AR v1)
Copy OK

Track 8

Filename C:\Exact Audio Copy\Carole King\The Living Room Tour Disc 2\08. I Feel The Earth Move.wav

Peak level 98.8 %
Extraction speed 5.9 X
Track quality 100.0 %
Test CRC 648A7456
Copy CRC 648A7456
Accurately ripped (confidence 2) [B4E116FB] (AR v1)
Copy OK

Track 9

Filename C:\Exact Audio Copy\Carole King\The Living Room Tour Disc 2\09. (You Make Me Feel Like A) Natural Woman.wav

Peak level 99.6 %
Extraction speed 6.5 X
Track quality 100.0 %
Test CRC D18CCC3D
Copy CRC D18CCC3D
Accurately ripped (confidence 2) [EAD61CDB] (AR v1)
Copy OK

Track 10

Filename C:\Exact Audio Copy\Carole King\The Living Room Tour Disc 2\10. You've Got A Friend.wav

Peak level 98.8 %
Extraction speed 6.6 X
Track quality 99.9 %
Test CRC CF637C81
Copy CRC CF637C81
Accurately ripped (confidence 2) [18192200] (AR v1)
Copy OK

Track 11

Filename C:\Exact Audio Copy\Carole King\The Living Room Tour Disc 2\11. Locomotion.wav

Peak level 98.8 %
Extraction speed 7.0 X
Track quality 100.0 %
Test CRC D985630A
Copy CRC D985630A
Accurately ripped (confidence 2) [6B30C221] (AR v1)
Copy OK


10 track(s) accurately ripped
1 track(s) could not be verified as accurate

Some tracks could not be verified as accurate

No errors occurred

End of status report

==== Log checksum C5E1704FFF81411D9ED538066EB4579B060D9F937E97A68F22FBA23667A84B51 ====

foobar2000 1.3.7 / Dynamic Range Meter 1.1.1
log date: 2015-07-05 01:23:31

––––––––––––––––––––––––––––––––––––––––
Analyzed: Carole King / The Living Room Tour Set 1
––––––––––––––––––––––––––––––––––––––––

DR Peak RMS Duration Track
––––––––––––––––––––––––––––––––––––––––
DR9 -0.34 dB -14.57 dB 1:59 01-Welcome To My Living Room
DR9 -0.61 dB -12.96 dB 3:42 02-Peace In The Valley
DR10 -0.10 dB -13.27 dB 4:23 03-Love Makes The World
DR11 -0.10 dB -13.68 dB 3:18 04-Now And Forever
DR10 -0.10 dB -12.11 dB 3:24 05-Where You Lead I Will Follow (w Louise Goffin)
DR11 -0.10 dB -14.64 dB 4:20 06-Lay Down My Life
DR9 -0.10 dB -11.80 dB 4:00 07-Jazzman
DR9 -0.10 dB -12.19 dB 4:12 08-Smackwater Jack
DR11 -0.10 dB -15.19 dB 4:13 09-Wishful Thinking
DR9 -0.10 dB -12.10 dB 8:41 10-Medley
––––––––––––––––––––––––––––––––––––––––

Number of tracks: 10
Official DR value: DR10

Samplerate: 44100 Hz
Channels: 2
Bits per sample: 16
Bitrate: 787 kbps
Codec: FLAC
================================================================================

foobar2000 1.3.7 / Dynamic Range Meter 1.1.1
log date: 2015-07-05 01:23:59

––––––––––––––––––––––––––––––––––––––––
Analyzed: Carole King / The Living Room Tour Set 2
––––––––––––––––––––––––––––––––––––––––

DR Peak RMS Duration Track
––––––––––––––––––––––––––––––––––––––––
DR9 -0.10 dB -12.79 dB 3:33 01-Loving You Forever (w Gary Burr)
DR10 -0.10 dB -12.96 dB 5:22 02-It's Too Late
DR11 -0.10 dB -14.81 dB 4:52 03-So Far Away
DR9 -0.10 dB -11.26 dB 3:21 04-Sweet Seasons
DR7 0.00 dB -10.59 dB 4:09 05-Chains
DR8 -0.10 dB -10.14 dB 3:45 06-Pleasant Valley Sunday
DR9 0.00 dB -12.98 dB 4:05 07-Being At War With Each Other
DR6 -0.10 dB -9.10 dB 4:04 08-I Feel The Earth Move
DR8 -0.03 dB -11.42 dB 3:58 09-(You Make Me Feel Like A) Natural Woman
DR9 -0.10 dB -12.03 dB 5:32 10-You've Got A Friend
DR8 -0.10 dB -11.20 dB 3:38 11-Locomotion
––––––––––––––––––––––––––––––––––––––––

Number of tracks: 11
Official DR value: DR9

Samplerate: 44100 Hz
Channels: 2
Bits per sample: 16
Bitrate: 872 kbps
Codec: FLAC
================================================================================


All thanks to - saintsmon


password: BlondStyle

Uploadable