Subcategories

Carolyn Sampson, Joseph Middleton - A Verlaine Songbook (2016)

Posted By: tirexiss
Carolyn Sampson, Joseph Middleton - A Verlaine Songbook (2016)

Carolyn Sampson, Joseph Middleton - A Verlaine Songbook (2016)
EAC | FLAC (image+.cue, log) | Covers Included | 80:00 | 322 MB
Genre: Classical, Vocal | Label: BIS | Catalog: BIS-SACD-2233

Verlaine’s poetry lends itself well to music and many of his poems have been set successfully by numerous composers. Thus it was a brilliant idea to build a programme around Verlaine and include several settings of some of the poems. Since Carolyn Sampson has cast her net widely and included several rarely heard composers, we are offered a very comprehensive odyssey through the Verlainean waters.
Ms Sampson is a richly endowed guide with a beautiful lyric voice well suited to French melodies: it is flexible, she has a sure feeling for the poetry and she is careful with nuance. Structurally the recital is well organized with two groups of Debussy songs framing the proceedings. Fauré’s La bonne chanson is the centre-piece and a good handful of separate songs are sprinkled in between.
The opening Debussy songs, created in 1891 and 1892, are among his finest and they are exquisitely sung here, in particular Clair de lune with dreamy intensity. Poldowski, pseudonym for Régine Wieniawski, who was daughter of Polish violinist and composer Henryk Wieniawski, was a talented composer, whose career became rather fragmented due to illness. She set no fewer than 21 poems by Verlaine, all of which were recorded ten years ago. The review of that disc also gives an outline of her career and categorises her musical style. Her music is fresh and inventive and is well worth exploring. Both L’heure exquise and Mandoline are melodious and beautiful and even though the songs may not be masterpieces they are very attractive.
Joseph Szulc was also of Polish parentage. The family moved to Paris towards the end of the nineteenth century and he studied with Massenet. He was appointed chief conductor at Théâtre de la Monnaie in Brussels and composed successful musical comedies. He set several Verlaine poems and one of those, Hantise d'amour, was recorded by Enrico Caruso in 1914. His beautiful setting of Clair de lune is possibly his masterpiece.
Déodat de Séverac also belongs among those composers who are rarely heard today. A student of Vincent d’Indy he wrote some operas, a couple of symphonic poems, pictorial piano music and several songs. Two of those are included here and they are Debussyan in mood. Paysages tristes from 1898, which concludes the disc is truly exquisite and is sung with the utmost sensitivity.
Fauré set nine of the 21 poems in Verlaine’s La bonne chanson when he was at the height of his powers in the early 1890s and the cycle has claims to be his masterwork in the genre. He had no qualms about presenting the poems in an order of his own rather than in Verlaine’s published order. Even so, there is a strong sense of integrity and Carolyn Sampson gives the cycle a purposeful reading.
Chausson worked slowly and laboriously and his output is rather small. On the other hand the few works he published are on a high level. Today it seems that there is a renaissance for his songs – and deservedly so. Apaisement, written in 1885, is very attractive and it is exquisitely sung here. Also Saint-Saëns’ songs have appeared on several recital discs of late and Le vent dans la plaine, written late in life when he was 77, shows that his inspiration still flowed. Reynaldo Hahn, once written off as a pale creator of perfumed salon pieces, has obtained redress and can be heard quite often in recitals and on disc. L’heure exquise was even the title song of an excellent Hyperion disc with Alice Coote a couple of years ago. The song is a gem and it so beautifully sung here. Fauré’s Clair de lune is probably his most popular mélodie – and rightly so. It flows so naturally.
Charles Bordes, a student of César Franck, was primarily organist and maître de chapelle at the Église Saint-Gervais in Paris. He died fairly young. His gloomy Colloque sentimental is a work from his relative youth.
Originally composed in the mid-1880s, Ariettes oublieés were revised and published in 1903 and dedicated to Scottish soprano Mary Garden, who the year before had created Mélisande at the world premiere of Pelléas et Mélisande. It should be noted that the last two songs are sung in English, for the simple reason that Verlaine liked the sound of the words. Like everything else on this disc, Carolyn Sampson sings them with excellent diction and deep involvement. Joseph Middleton’s accompaniments are sensitive and the BIS recording team should be applauded for the realistic sound. The inclusion of some composers off the beaten track should make the disc a tempting proposition also for those who are well stocked with French melodies. – Göran Forsling

Carolyn Sampson, Joseph Middleton - A Verlaine Songbook (2016)

Track List:

Claude Debussy (1862–1918)
[1]-[3] Fêtes galantes, 1er recueil (L. 80)

Poldowski (Régine Wieniawski) (1879–1932)
[4] Cythère (1913?)
[5] En sourdine (1911?)
[6] Colombine (1913?)
[7] L’heure exquise (1913)
[8] Mandoline (1912)

Maurice Ravel (1875–1937)
[9] Sur l’herbe (1907)

Joseph Szulc (1875–1956)
[10] Clair de lune, Op. 83 No. 1

Déodat de Séverac (1872–1921)
[11] Le ciel est, par-dessus le toit (1897)

Gabriel Fauré (1845–1924)
[12]-[20] La Bonne Chanson, Op. 61

Ernest Chausson (1855–99)
[21] Apaisement, Op. 13 No. 1

Camille Saint-Saëns (1835–1921)
[22] Le vent dans la plaine (1912)

Reynaldo Hahn (1874–1947)
from 7 Chansons grises
[23] Tous deux (1892)
[24] L’heure exquise (1892)

Gabriel Fauré
[25] Clair de lune, Op. 46 No. 2

Charles Bordes (1863–1909)
[26] Colloque sentimental (1884)

Claude Debussy
[27]-[32] Ariettes oubliées, L. 60

Déodat de Séverac
[33] Paysages tristes

Performers:
Carolyn Sampson, soprano
Joseph Middleton, piano

Exact Audio Copy V1.1 from 23. June 2015

EAC extraction logfile from 10. March 2017, 8:34

Carolyn Sampson, Joseph Middleton / A Verlaine Songbook

Used drive : HL-DT-STDVDRAM GU70N Adapter: 1 ID: 0

Read mode : Secure
Utilize accurate stream : Yes
Defeat audio cache : Yes
Make use of C2 pointers : No

Read offset correction : 48
Overread into Lead-In and Lead-Out : No
Fill up missing offset samples with silence : Yes
Delete leading and trailing silent blocks : No
Null samples used in CRC calculations : Yes
Used interface : Native Win32 interface for Win NT & 2000

Used output format : User Defined Encoder
Selected bitrate : 128 kBit/s
Quality : High
Add ID3 tag : No
Command line compressor : C:\Program Files (x86)\Exact Audio Copy\Flac\flac.exe
Additional command line options : -V -8 -T "Date=%year%" -T "Genre=%genre%" %source%


TOC of the extracted CD

Track | Start | Length | Start sector | End sector
––––––––––––––––––––––––––––-
1 | 0:00.00 | 3:00.38 | 0 | 13537
2 | 3:00.38 | 1:23.25 | 13538 | 19787
3 | 4:23.63 | 2:47.70 | 19788 | 32382
4 | 7:11.58 | 0:53.60 | 32383 | 36417
5 | 8:05.43 | 2:46.21 | 36418 | 48888
6 | 10:51.64 | 1:56.46 | 48889 | 57634
7 | 12:48.35 | 2:54.34 | 57635 | 70718
8 | 15:42.69 | 1:36.08 | 70719 | 77926
9 | 17:19.02 | 2:09.31 | 77927 | 87632
10 | 19:28.33 | 3:10.52 | 87633 | 101934
11 | 22:39.10 | 3:32.39 | 101935 | 117873
12 | 26:11.49 | 2:10.61 | 117874 | 127684
13 | 28:22.35 | 1:51.54 | 127685 | 136063
14 | 30:14.14 | 2:15.20 | 136064 | 146208
15 | 32:29.34 | 1:42.65 | 146209 | 153923
16 | 34:12.24 | 2:19.20 | 153924 | 164368
17 | 36:31.44 | 2:29.18 | 164369 | 175561
18 | 39:00.62 | 2:28.26 | 175562 | 186687
19 | 41:29.13 | 2:06.15 | 186688 | 196152
20 | 43:35.28 | 2:49.05 | 196153 | 208832
21 | 46:24.33 | 2:50.37 | 208833 | 221619
22 | 49:14.70 | 1:23.40 | 221620 | 227884
23 | 50:38.35 | 1:42.39 | 227885 | 235573
24 | 52:20.74 | 2:42.59 | 235574 | 247782
25 | 55:03.58 | 2:54.02 | 247783 | 260834
26 | 57:57.60 | 4:25.72 | 260835 | 280781
27 | 62:23.57 | 2:45.58 | 280782 | 293214
28 | 65:09.40 | 2:28.08 | 293215 | 304322
29 | 67:37.48 | 2:26.63 | 304323 | 315335
30 | 70:04.36 | 3:14.05 | 315336 | 329890
31 | 73:18.41 | 2:15.52 | 329891 | 340067
32 | 75:34.18 | 2:17.63 | 340068 | 350405
33 | 77:52.06 | 2:08.28 | 350406 | 360033


Range status and errors

Selected range

Filename C:\temp\BIS-SACD-2233 - A Verlaine Songbook\A Verlaine Songbook.wav

Peak level 95.9 %
Extraction speed 2.3 X
Range quality 100.0 %
Test CRC FA9C2BE7
Copy CRC FA9C2BE7
Copy OK

No errors occurred


AccurateRip summary

Track 1 not present in database
Track 2 not present in database
Track 3 not present in database
Track 4 not present in database
Track 5 not present in database
Track 6 not present in database
Track 7 not present in database
Track 8 not present in database
Track 9 not present in database
Track 10 not present in database
Track 11 not present in database
Track 12 not present in database
Track 13 not present in database
Track 14 not present in database
Track 15 not present in database
Track 16 not present in database
Track 17 not present in database
Track 18 not present in database
Track 19 not present in database
Track 20 not present in database
Track 21 not present in database
Track 22 not present in database
Track 23 not present in database
Track 24 not present in database
Track 25 not present in database
Track 26 not present in database
Track 27 not present in database
Track 28 not present in database
Track 29 not present in database
Track 30 not present in database
Track 31 not present in database
Track 32 not present in database
Track 33 not present in database

None of the tracks are present in the AccurateRip database

End of status report

==== Log checksum B4481049C3AF3290A2730019F9A96B74AF2BC34D209A9933F030504B6EE36D8F ====

[CUETools log; Date: 16.12.2017 21:16:16; Version: 2.1.5]
[CTDB TOCID: Sw.JjPE9YAYnM9.SCpFbRAQPLj8-] found.
Track | CTDB Status
1 | (3/3) Accurately ripped
2 | (3/3) Accurately ripped
3 | (3/3) Accurately ripped
4 | (3/3) Accurately ripped
5 | (3/3) Accurately ripped
6 | (3/3) Accurately ripped
7 | (3/3) Accurately ripped
8 | (3/3) Accurately ripped
9 | (3/3) Accurately ripped
10 | (3/3) Accurately ripped
11 | (3/3) Accurately ripped
12 | (3/3) Accurately ripped
13 | (3/3) Accurately ripped
14 | (3/3) Accurately ripped
15 | (3/3) Accurately ripped
16 | (3/3) Accurately ripped
17 | (2/3) Accurately ripped
18 | (3/3) Accurately ripped
19 | (3/3) Accurately ripped
20 | (3/3) Accurately ripped
21 | (3/3) Accurately ripped
22 | (3/3) Accurately ripped
23 | (3/3) Accurately ripped
24 | (3/3) Accurately ripped
25 | (3/3) Accurately ripped
26 | (3/3) Accurately ripped
27 | (3/3) Accurately ripped
28 | (3/3) Accurately ripped
29 | (3/3) Accurately ripped
30 | (3/3) Accurately ripped
31 | (3/3) Accurately ripped
32 | (3/3) Accurately ripped
33 | (3/3) Accurately ripped
[AccurateRip ID: 005a742a-08513d02-ce12c021] found.
Track [ CRC | V2 ] Status
01 [d58cd6e7|6e2cf6d8] (0+2/2) Accurately ripped
02 [74466a0e|d0c66727] (0+2/2) Accurately ripped
03 [0d6f092a|73267fa8] (0+2/2) Accurately ripped
04 [98a04548|eb9612f7] (0+2/2) Accurately ripped
05 [54df6090|94747ca0] (0+2/2) Accurately ripped
06 [9c3c6495|e423480a] (0+2/2) Accurately ripped
07 [2ff12487|aa1e8049] (0+2/2) Accurately ripped
08 [d2c4c1e9|de47853c] (0+2/2) Accurately ripped
09 [1b9d2d7f|03830167] (0+2/2) Accurately ripped
10 [76540467|a4c98d59] (0+2/2) Accurately ripped
11 [81df6838|d7cb2058] (0+2/2) Accurately ripped
12 [b49c032f|5c7e836d] (0+2/2) Accurately ripped
13 [8e9412ed|4ea486d3] (0+2/2) Accurately ripped
14 [fd48f2aa|9dcc72c3] (0+2/2) Accurately ripped
15 [e6c2ff5a|8e764a3e] (0+2/2) Accurately ripped
16 [15b86560|13c1b00e] (0+2/2) Accurately ripped
17 [f12cc22c|220b4ebf] (0+2/2) Accurately ripped
18 [c6f8c742|256aa918] (0+2/2) Accurately ripped
19 [61892ee5|ad9eb058] (0+2/2) Accurately ripped
20 [e757fe77|b361030e] (0+2/2) Accurately ripped
21 [a07cdca8|4710beb9] (0+2/2) Accurately ripped
22 [61265cf9|72d56f73] (0+2/2) Accurately ripped
23 [57a2f4fe|54ae0738] (0+2/2) Accurately ripped
24 [57fdc894|50b18320] (0+2/2) Accurately ripped
25 [d512d7d1|f286cfe3] (0+2/2) Accurately ripped
26 [d41593ef|541497e4] (0+2/2) Accurately ripped
27 [2b58d3a6|427f3e30] (0+2/2) Accurately ripped
28 [ba63a686|6f73d00b] (0+2/2) Accurately ripped
29 [d54716d2|18707167] (0+2/2) Accurately ripped
30 [7f7420b8|92f3dbe4] (0+2/2) Accurately ripped
31 [f3c917da|045d478c] (0+2/2) Accurately ripped
32 [a2f5f5ea|5f19b568] (0+2/2) Accurately ripped
33 [a1e12502|cbce5819] (0+2/2) Accurately ripped

Track Peak [ CRC32 ] [W/O NULL] [ LOG ]
– 95,9 [FA9C2BE7] [43E89641] CRC32
01 65,0 [A82FBB2F] [4BCAA644]
02 74,8 [D5C7D2E2] [A1BF8752]
03 56,2 [25A74003] [DF97B311]
04 54,8 [90A75DA9] [EBA56D2A]
05 95,9 [3F606D9E] [4FA838A2]
06 81,3 [BEFD6148] [EA94695C]
07 88,0 [DD41F2C7] [B6004691]
08 63,2 [B41A9384] [D641D980]
09 90,4 [E0EC340F] [45CFC28E]
10 78,3 [19FB2387] [CB5D9962]
11 67,5 [D6B9F245] [F736049B]
12 57,1 [00F11ADA] [594D9952]
13 80,1 [4C20FC39] [6DF8D4AA]
14 84,1 [DDA3BFC0] [432B864B]
15 92,7 [7C3DE665] [511077ED]
16 94,0 [7FEFFCF1] [8EEBCB32]
17 82,7 [FEC6DB9C] [F6FF6ACF]
18 79,2 [63DD8055] [80E34E8E]
19 81,4 [564726A7] [0A0925F6]
20 79,0 [14CE7AC3] [BC55B046]
21 27,6 [04C46C36] [13852ADD]
22 76,2 [1E169FA4] [41DE2031]
23 71,1 [52FF27CD] [DBB635DD]
24 43,2 [B80FD538] [54544A8E]
25 66,5 [094262E3] [D2862AFF]
26 95,5 [AF726B25] [681D8867]
27 94,9 [C8138D65] [FB9A8E53]
28 78,3 [3604C9BC] [1C701FD6]
29 59,1 [E24B99EA] [B5150E3C]
30 83,7 [9980F309] [E5D136BB]
31 53,1 [350C8D3F] [E74CA22F]
32 94,8 [58B50836] [4FFCABBC]
33 19,2 [059C8536] [D27EFC60]

Thanks to the Original ripper A-Z!

Download: