Subcategories

Carpenters - Christmas Collection (1996) [2-CD Set] Repost

Posted By: Andi_Deris
Carpenters - Christmas Collection (1996) [2-CD Set] Repost

Carpenters - Christmas Collection (1996) [2-CD Set]
EAC Rip | FLAC: Image+Cue+Log | 602 Mb | MP3 CBR 320 kbps | 253 Mb | Scans | Time: 49:38 + 49:03
Genre: AM Pop, Soft Rock, Holiday, Christmas | Label: A&M Records Inc. | Cat.№: 31454 0603 2

Digitally Remastered Double CD Collection featuring 1978's 'christmas Portrait' Backed with 1984's 'An Old-Fashioned Christmas'. CHRISTMAS COLLECTION was released first worldwide in 1996 but took longer to get a release in the US. It combined both Christmas albums, in their entirety, and furthermore featured a near-total-remix of the CHRISTMAS PORTRAIT. “Merry Christmas Darling” was featured in its original album mix from 1978.

Carpenters - Christmas Collection (1996) [2-CD Set] Repost




Carpenters - Christmas Collection (1996) [2-CD Set] Repost


Disc One (Christmas Portrait)

01. O Come, O Come Emmanuel (1992 remix)*** (0:28) (P.D. Arrg. & Adapted by Richard Carpenter)
02. Overture: (1992 remix)*: (4:38)
– a. Deck The Halls (With Boughs Of Holly) / (P.D. Trad French Carol)
– b. I Saw Three Ships (P.D. Trad Welsh Carol)
– c. Have Yourself A Merry Little Christmas (Martin/Blane)
– d. God Rest Ye Merry Gentlemen (P.D. Trad English Carol)
– e. Away In A Manger (Luther’s Cradle Hymn) / (P.D. Luther/Mueller/Spilman)
– f. What Child Is This? (Greensleeves) / (P.D. Will C. Dix)
– g. Carol Of The Bells (P.D. Trad Ukranian Carol)
– h. O Come All Ye Faithful (Adeste Fideles) / (P.D. English version: Oakeley/Wade/Reai)

03. The Christmas Waltz (1992 remix)* (2:15) (Cahn/Styne)
04. Sleigh Ride (1992 remix)** (2:39) (Parish/Anderson)
05. It’s Christmas Time/Sleep Well, Little Children (1992 remix)* (2:53) (Young/Stilman/Bergman/Klatzkin)
06. Have Yourself A Merry Little Christmas (1992 remix)** (3:55) (Martin/Blane)
07. Santa Claus Is Coming To Town (1992 remix)* (1:05) (Giliespie/Coots)
08. The Christmas Song (Chestnuts Roasting On An Open Fire) (1992 remix)** (3:39) (Torme/Wells)
09. Silent Night (1992 remix)* (3:19) (P.D. Orig. Music by Franz Gruber, Arrg. & Adapted by Peter Knight)
10. Jingle Bells (1992 remix)* (1:10) (P.D. Orig Music: James Pierpont, Arrg. & Adapted by Peter Knight)
11. The First Snowfall/Let It Snow (Medley) (1992 remix)* (3:35) (Webster/Burke) & (Cahn/Styne)
12. Carol Of The Bells (1992 remix)* (1:39) (P.D. Trad Ukranian Carol, Arrg. & Adapted by Richard Carpenter)
13. Merry Christmas Darling (1978 album version)+*** (3:05) (Pooler/Carpenter)
14. I’ll Be Home For Christmas (1992 remix)** (3:48) (Gannon/Kent/Ram)
15. Christ Is Born (1990 remix)* (3:13) (Charles/Bartolucci)
16. Medley: (1992 remix)**: (5:31)
– a. Winter Wonderland” (Smith/Bernard)
– b. Silver Bells” (Livingston/Evans)
– c. White Christmas” (Berlin)

17. Ave Maria (1990 remix)* (2:35) (P.D. Original Music: Johann Sebastian Bach, Adapted by Charles Gounod, This arrg & adaptation by Peter Knight)

Credits:

Produced by Richard Carpenter
Associate Producer Karen Carpenter
Lead Vocals: Karen Carpenter and Richard Carpenter
Arranged by Peter Knight*, Billy May**, and Richard Carpenter***
Keyboards: Pete Jolly and Richard Carpenter
Bass: Joe Osborn
Drums: Ron Tutt and Cubby O’Brien
Guitars: Bob Bain, Tony Peluso and Tommy Tedesco
Harp: Gayle Levant and Dorothy Remsen
Oboe: Earl Dumler and John Ellis
Tenor Sax: Bob Messenger
Vocals: The Tom Bahler Chorale and Karen & Richard Carpenter
Engineered by Ray Gerhardt, Roger Young and Dave Iveland
Mastering Engineer: Bernie Grundman
+ ”Merry Christmas Darling” Produced by Jack Daugherty
Special Thanks to: Ed Sulzer
Personal Management: Jerry Weintraub / Management Three

Carpenters - Christmas Collection (1996) [2-CD Set] Repost


Disc Two (An Old-Fashioned Christmas)

01. It Came Upon A Midnight Clear (0:43) (Sears/Willis)
02. Overture: (8:13)
– a. Happy Holiday (Berlin) Irving Berlin Music Company, adm. by Williamson Music Company (ASCAP)
– b. The First Noel (P.D. Trad. Old English Carol)
– c. March Of The Toys (Herbert) Warner Bros., Inc. (ASCAP)
– d. Little Jesus (P.D. From the Oxford Book Of Carols)
– e. I Saw Mommy Kissing Santa Claus (Connor) Jewel Music Publishing Co., Inc. (ASCAP)
– f. O Little Town Of Bethlehem (P.D. L.H. Redner) Longitude Music Co. (BMI)
– g. In Dulce Jubilo (P.D. 14th Century German melody)
– h. Gesu Bambino (The Infant Jesus) (Yon) Beam Me Up Music (ASCAP)
– i. Angels We Have Heard On High (P.D. Trad. French Carol)

03. An Old-Fashioned Christmas (2:34) (Carpenter/Bettis)
04. O Holy Night (3:31) (P.D. Adolphe Adam/Adapted by Richard Carpenter)
05. (There’s No Place Like) Home For The Holidays (2:13) (Allen/Stillman)
06. Medley: (3:43)
– a. Here Comes Santa Claus (Autry/Haldeman) Gene Autry’s Western Music Publishing (ASCAP)
– b. Frosty The Snowman (Nelson/Rollins) Chappell & Co. (ASCAP)
– c. Rudolph The Red-Nosed Reindeer (Marks) St. Nicholas Music Inc. (ASCAP)
– d. Good King Wenceslas (P.D. John Mason Neale, Adapted by Richard Carpenter) Almo Music Corp./Hammer and Nails Music, adm. by Almo Music Corp. (ASCAP)

07. Little Altar Boy (3:43) (Smith)
08. Do You Hear What I Hear? (2:53) (Regney/Shayne)
09. My Favorite Things (3:53) (Rodgers/Hammerstein)
10. He Came Here For Me (2:12) (Nelson)
11. Santa Claus Is Coming To Town (4:04) (Gillespie/Coots)
12. What Are You Doing New Year’s Eve? (2:51) (Loesser)
13. Selections from “The Nutcracker” (6:14) (P.D. Peter Illych Tchaikovsky, Adapted by Richard Carpenter)
– a. Overture Miniature
– b. Dance Of The Sugar Plum Fairy
– c. Trepak
– d. Valse Des Fleurs

14. I Heard The Bells On Christmas Day (2:21) (Marks/Longfellow, Adapted by Johnny Marks)

Credits:

Conceived and Produced by Richard Carpenter
Lead vocals: Karen Carpenter and Richard Carpenter
Piano: Richard Carpenter
Arranged by: Peter Knight (#2, 3, 4, 5, 6, 7, 8, 9, 12, 13, 14), Richard Carpenter (#1, 11) and Billy May (#10)
Keyboards: Richard Carpenter & Pete Jolly
Upright Bass: Pete Morgan
Electric Bass: Joe Osborn
Drums: Ron Tutt & Barry Morgan
Harp: Skiala Kanga & Gayle Levant
Tenor Sax: John Phillips
Vocals: The O.K. Chorale Conducted by Dick Bolks, The English Chorale Conducted by Robert Howes, Karen & Richard Carpenter
Recorded at: A&M Recording Studios, Hollywood, CA
Engineered by Roger Young, Ray Gerhardt and Robert De La Garza
EMI “Abbey Road” Studios
Engineered by Eric Tomlinson
Assistant: Allan Rouse
Mixed at: A&M Recording Studios
Engineered by Roger Young
Assistants: Clyde Kaplan & Jim Cassell
Evergreen Studios
Engineered by John Richards
Assistants: Dave Marquette & Mike Hatcher
Mastered by Arnie Acosta at A&M Mastering Studios, Hollywood CA
Santa Claus Is Coming To Town Produced by Jack Daugherty and Richard & Karen Carpenter

Notes

Disc One ℗ 1978 A&M Records, Inc.
Disc Two ℗ 1984 A&M Records, Inc. + ℗ 1974 A&M Records, Inc.

© 1996 A&M Records, Inc. A Universal Music Company

Remastered by: Dave Collins at A&M Mastering Studios

Carpenters - Christmas Collection (1996) [2-CD Set] Repost


Exact Audio Copy V0.99 prebeta 5 from 4. May 2009

Отчёт EAC об извлечении, выполненном 27. октября 2009, 14:59

Carpenters / Christmas Portrait

Дисковод: _NEC DVD_RW ND-3500AG Adapter: 1 ID: 1

Режим чтения : Достоверность
Использование точного потока : Да
Отключение кэша аудио : Да
Использование указателей C2 : Нет

Коррекция смещения при чтении : 48
Способность читать области Lead-in и Lead-out : Нет
Заполнение пропущенных сэмплов тишиной : Да
Удаление блоков с тишиной в начале и конце : Нет
При вычислениях CRC использовались нулевые сэмплы : Да
Интерфейс : Встроенный Win32-интерфейс для Win NT/2000

Выходной формат : Пользовательский кодировщик
Выбранный битрейт : 768 kBit/s
Качество : Высокий
Добавление ID3-тэга : Нет
Утилита сжатия : C:\Program Files\Exact Audio Copy\FLAC\FLAC.EXE
Дополнительные параметры : -6 -V -T "ARTIST=%a" -T "TITLE=%t" -T "ALBUM=%g" -T "DATE=%y" -T "TRACKNUMBER=%n" -T "GENRE=%m" -T "COMMENT=%e" %s -o %d


TOC извлечённого CD

Трек | Старт | Длительность | Начальный сектор | Конечный сектор
––––––––––––––––––––––––––––––––––-
1 | 0:00.00 | 0:28.37 | 0 | 2136
2 | 0:28.37 | 4:39.53 | 2137 | 23114
3 | 5:08.15 | 2:13.65 | 23115 | 33154
4 | 7:22.05 | 2:38.70 | 33155 | 45074
5 | 10:01.00 | 2:54.70 | 45075 | 58194
6 | 12:55.70 | 3:54.45 | 58195 | 75789
7 | 16:50.40 | 1:05.17 | 75790 | 80681
8 | 17:55.57 | 3:39.73 | 80682 | 97179
9 | 21:35.55 | 3:19.67 | 97180 | 112171
10 | 24:55.47 | 1:11.60 | 112172 | 117556
11 | 26:07.32 | 3:33.55 | 117557 | 133586
12 | 29:41.12 | 1:38.73 | 133587 | 141009
13 | 31:20.10 | 3:05.52 | 141010 | 154936
14 | 34:25.62 | 3:50.23 | 154937 | 172209
15 | 38:16.10 | 3:14.60 | 172210 | 186819
16 | 41:30.70 | 5:30.67 | 186820 | 211636
17 | 47:01.62 | 2:36.00 | 211637 | 223336


Характеристики диапазона извлечения и сообщения об ошибках

Выбранный диапазон

Имя файла D:\Christmas Collection-1996\CD1\Carpenters - Christmas Portrait.wav

Пиковый уровень 99.8 %
Качество диапазона 100.0 %
CRC теста A9177F45
CRC копии A9177F45
Копирование… OK

Ошибок не произошло


AccurateRip: сводка

Трек 1 точное извлечение (доверие 20) [0B7927A5]
Трек 2 точное извлечение (доверие 20) [BD6A845C]
Трек 3 точное извлечение (доверие 20) [35112544]
Трек 4 точное извлечение (доверие 20) [28A9B47B]
Трек 5 точное извлечение (доверие 20) [74B125A1]
Трек 6 точное извлечение (доверие 20) [0F1A6633]
Трек 7 точное извлечение (доверие 20) [65C20EFF]
Трек 8 точное извлечение (доверие 20) [2E75DC0A]
Трек 9 точное извлечение (доверие 19) [13E602CD]
Трек 10 точное извлечение (доверие 20) [EA85B24E]
Трек 11 точное извлечение (доверие 19) [AB4EB9B5]
Трек 12 точное извлечение (доверие 19) [A9FC5EED]
Трек 13 точное извлечение (доверие 20) [D55A96BE]
Трек 14 точное извлечение (доверие 20) [0C171A5E]
Трек 15 точное извлечение (доверие 19) [D416B6F0]
Трек 16 точное извлечение (доверие 20) [429662B3]
Трек 17 точное извлечение (доверие 17) [2AEBB1B3]

Все треки извлечены точно

Конец отчёта

Exact Audio Copy V0.99 prebeta 5 from 4. May 2009

Отчёт EAC об извлечении, выполненном 27. октября 2009, 20:04

Christmas - Carpenters / Carpenters Christmas Collection (Disc 2: An O

Дисковод: _NEC DVD_RW ND-3500AG Adapter: 1 ID: 1

Режим чтения : Достоверность
Использование точного потока : Да
Отключение кэша аудио : Да
Использование указателей C2 : Нет

Коррекция смещения при чтении : 48
Способность читать области Lead-in и Lead-out : Нет
Заполнение пропущенных сэмплов тишиной : Да
Удаление блоков с тишиной в начале и конце : Нет
При вычислениях CRC использовались нулевые сэмплы : Да
Интерфейс : Встроенный Win32-интерфейс для Win NT/2000

Выходной формат : Пользовательский кодировщик
Выбранный битрейт : 768 kBit/s
Качество : Высокий
Добавление ID3-тэга : Нет
Утилита сжатия : C:\Program Files\Exact Audio Copy\FLAC\FLAC.EXE
Дополнительные параметры : -6 -V -T "ARTIST=%a" -T "TITLE=%t" -T "ALBUM=%g" -T "DATE=%y" -T "TRACKNUMBER=%n" -T "GENRE=%m" -T "COMMENT=%e" %s -o %d


TOC извлечённого CD

Трек | Старт | Длительность | Начальный сектор | Конечный сектор
––––––––––––––––––––––––––––––––––-
1 | 0:00.00 | 0:43.28 | 0 | 3252
2 | 0:43.28 | 8:14.60 | 3253 | 40362
3 | 8:58.13 | 2:14.37 | 40363 | 50449
4 | 11:12.50 | 3:10.20 | 50450 | 64719
5 | 14:22.70 | 2:35.70 | 64720 | 76414
6 | 16:58.65 | 3:43.40 | 76415 | 93179
7 | 20:42.30 | 3:43.60 | 93180 | 109964
8 | 24:26.15 | 2:53.30 | 109965 | 122969
9 | 27:19.45 | 3:54.00 | 122970 | 140519
10 | 31:13.45 | 2:12.45 | 140520 | 150464
11 | 33:26.15 | 4:04.55 | 150465 | 168819
12 | 37:30.70 | 2:51.55 | 168820 | 181699
13 | 40:22.50 | 6:15.03 | 181700 | 209827
14 | 46:37.53 | 2:24.45 | 209828 | 220672


Характеристики диапазона извлечения и сообщения об ошибках

Выбранный диапазон

Имя файла D:\Christmas Collection-1996\CD2\Christmas - Carpenters - Carpenters Christmas Collection (Disc 2 An O.wav

Пиковый уровень 99.8 %
Качество диапазона 100.0 %
CRC теста 475155D0
CRC копии 475155D0
Копирование… OK

Ошибок не произошло


AccurateRip: сводка

Трек 1 точное извлечение (доверие 2) [18F18891]
Трек 2 точное извлечение (доверие 2) [18BF0406]
Трек 3 точное извлечение (доверие 2) [0218D00C]
Трек 4 точное извлечение (доверие 2) [FD462F51]
Трек 5 точное извлечение (доверие 2) [4DEADAF5]
Трек 6 точное извлечение (доверие 2) [D4DE5B62]
Трек 7 точное извлечение (доверие 2) [570B66B9]
Трек 8 точное извлечение (доверие 2) [50032FDB]
Трек 9 точное извлечение (доверие 2) [E8925D21]
Трек 10 точное извлечение (доверие 2) [D391D14A]
Трек 11 точное извлечение (доверие 2) [EED5B3F3]
Трек 12 точное извлечение (доверие 2) [D6F99982]
Трек 13 точное извлечение (доверие 2) [6F908F06]
Трек 14 точное извлечение (доверие 2) [CB748AEF]

Все треки извлечены точно

Конец отчёта


Many thanks to the original uploader: voostorg