Carpenters - Now & Then (1973)

Posted By: Andi_Deris
Carpenters - Now & Then (1973)

Carpenters - Now & Then (1973)
EAC Rip | FLAC: Image+Cue+Log | 256 Mb | MP3 CBR 320 kbps | 115 Mb | Scans | Time: 37:55
Genre: Pop, AM Pop, Soft Rock | Label: A&M Records, Inc. | Cat.№: CD 3519

Now & Then is the fifth album from The Carpenters, released on May 16, 1973. In Cash Box Year-End Charts of 1973, Now & Then appeared at number 20 and the title for the album was suggested by Richard and Karen's mother, Agnes Carpenter. This is a great cd for anyone looking for some classic Carpenters!

Carpenters - Now & Then (1973)




Carpenters - Now & Then (1973)


Track Listing

01. Sing (3:18)
02. This Masquerade (4:52)
03. Heather (2:51)
04. Jambalaya (3:43)
05. I Can't Make Music (3:20)
06. Yesterday Once More (3:56)
07. Fun, Fun, Fun (1:41)
08. The End Of The World (2:27)
09. Da Doo Ron Ron (1:47)
10. Deadman's Curve (1:32)
11. Johnny Angel (1:32)
12. The Night Has A Thousand Eyes (2:17)
13. Our Day Will Come (2:01)
14. One Fine Day (1:39)
15. Yesterday Once More (Reprise) (0:59)

Produced by Richard and Karen Carpenter

Musicians

• Richard and Karen Carpenter: all vocals
• Richard Carpenter: keyboards
• Joe Osborn: bass
• Karen Carpenter: drums
• Bob Messenger: flute & tenor sax
• Doug Strawn: baritone saxophone
• Tony Peluso: lead guitar
• Tony Peluso & Gary Sims: guitar
• Buddy Emmons & Jay Dee Maness: steel guitar
• Earl Dumler: oboe & bass oboe-English horn
• D.J.: Tony Peluso: voice

Notes

Audio Master Plus Series / Reissue / Repress

Catalog number on booklet and back cover: CD 3519
Catalog number on disc: 75021 3519 2

A&M Records, Inc., P.O. Box 118, Hollywood, CA 90028
© 1973 A&M Records, Inc. ℗ 1973 A&M Records, Inc.

Carpenters - Now & Then (1973)


Exact Audio Copy V0.99 prebeta 4 from 23. January 2008

Отчёт EAC об извлечении, выполненном 4. сентября 2008, 16:59

Carpenters / Now & Then

Дисковод: ASUS SCB-1608 Adapter: 1 ID: 0

Режим чтения : Достоверность
Использование точного потока : Да
Отключение кэша аудио : Да
Использование указателей C2 : Нет

Коррекция смещения при чтении : -582
Способность читать области Lead-in и Lead-out : Нет
Заполнение пропущенных сэмплов тишиной : Да
Удаление блоков с тишиной в начале и конце : Нет
При вычислениях CRC использовались нулевые сэмплы : Да
Интерфейс : Встроенный Win32-интерфейс для Win NT/2000

Выходной формат : Пользовательский кодировщик
Выбранный битрейт : 128 kBit/s
Качество : Высокий
Добавление ID3-тэга : Нет
Утилита сжатия : C:\Exact Audio Copy\Flac\flac.exe
Дополнительные параметры : -8 -V -T "ARTIST=%a" -T "ALBUM=%g" -T "DATE=%y" -T "TRACKNUMBER=%n" -T "GENRE=%m" -T "COMMENT=EAC FLAC -8" %s


TOC извлечённого CD

Трек | Старт | Длительность | Начальный сектор | Конечный сектор
––––––––––––––––––––––––––––––––––-
1 | 0:00.33 | 3:18.52 | 33 | 14934
2 | 3:19.10 | 4:51.70 | 14935 | 36829
3 | 8:11.05 | 2:51.33 | 36830 | 49687
4 | 11:02.38 | 3:42.47 | 49688 | 66384
5 | 14:45.10 | 3:19.40 | 66385 | 81349
6 | 18:04.50 | 3:56.23 | 81350 | 99072
7 | 22:00.73 | 1:40.52 | 99073 | 106624
8 | 23:41.50 | 2:26.38 | 106625 | 117612
9 | 26:08.13 | 1:47.12 | 117613 | 125649
10 | 27:55.25 | 1:32.20 | 125650 | 132569
11 | 29:27.45 | 1:31.65 | 132570 | 139459
12 | 30:59.35 | 2:17.10 | 139460 | 149744
13 | 33:16.45 | 2:00.70 | 149745 | 158814
14 | 35:17.40 | 1:38.58 | 158815 | 166222
15 | 36:56.23 | 0:59.25 | 166223 | 170672


Характеристики диапазона извлечения и сообщения об ошибках

Выбранный диапазон

Имя файла C:\EAC\Carpenters - Now & Then.wav

Пиковый уровень 90.5 %
Качество диапазона 99.9 %
CRC копии 1B290A6A
Копирование… OK

Ошибок не произошло


AccurateRip: сводка

Трек 1 нет в базе данных
Трек 2 нет в базе данных
Трек 3 нет в базе данных
Трек 4 нет в базе данных
Трек 5 нет в базе данных
Трек 6 нет в базе данных
Трек 7 нет в базе данных
Трек 8 нет в базе данных
Трек 9 нет в базе данных
Трек 10 нет в базе данных
Трек 11 нет в базе данных
Трек 12 нет в базе данных
Трек 13 нет в базе данных
Трек 14 нет в базе данных
Трек 15 нет в базе данных

Ни одного трека нет в базе AccurateRip

Конец отчёта


Many thanks to the original uploader: bvstudio

See also:
* Carpenters 1975 Horizon
* Carpenters 1996 Live at Budokan 1974 (DVD5)
* Carpenters 2002 Gold: Greatest Hits (DVD5)