Subcategories

Carpenters - The Singles 1969-1973 (1973) [Japan (mini LP) Platinum SHM-CD, 2014]

Posted By: Andi_Deris
Carpenters - The Singles 1969-1973 (1973) [Japan (mini LP) Platinum SHM-CD, 2014]

Carpenters - The Singles 1969-1973 (1973) [Japan (mini LP) Platinum SHM-CD, 2014]
EAC Rip | FLAC: Image+Cue+Log | 282 Mb | MP3 CBR 320 kbps | 128 Mb | Scans | 70 Mb | Time: 41:47
Genre: Pop, AM Pop, Soft Rock | Label: A&M Records/Universal Music LLC | Cat.№: UICY-40046

This was the first compilation of Carpenters material, occurring during the duo’s career and released during a period of intense concert-performing rather than producing a new studio album. In spite of that, this 1973 album presented fans with new ways to hear the old songs, starting with an uncredited overture before the first song, and including a re-recorded version of their first hit along with segues to link several more songs. The result was a very listenable album rather than just a collection of tracks.

In 2014, three different versions of the album were issued in Japan. One was a stereo-only SACD pressed on SHM material. The second was an SHM-platinum CD, and the third was a plain SHM-CD. All used the same mixes as present on the Remastered Classics version with new mastering by Richard & Bernie Grundman in February of 2014, and included typical Japanese niceties in the packaging of the mini-LP discs.

Carpenters - The Singles 1969-1973 (1973) [Japan (mini LP) Platinum SHM-CD, 2014]




Carpenters - The Singles 1969-1973 (1973) [Japan (mini LP) Platinum SHM-CD, 2014]


Track Listing

01. We've Only Just Begun (04:09)
02. Top Of The World (02:58)
03. Ticket To Ride (04:09)
04. Superstar (03:45)
05. Rainy Days And Mondays (03:25)
06. Goodbye To Love (03:59)
07. Yesterday Once More (03:58)
08. It's Going To Take Some Time (02:55)
09. Sing (03:17)
10. For All We Know (02:34)
11. Hurting Each Other (02:48)
12. (They Long To Be) Close To You (03:44)

Produced by Richard & Karen Carpenter and Jack Daugherty

Musicians

• Richard and Karen Carpenter: all vocals
• Richard Carpenter: keyboards
• Karen Carpenter, Hal Blaine: drums
• Joe Osborn: bass
• Tony Peluso: guitars
• Bob Messenger: flute, tenor sax
• Buddy Emmons: steel guitar
• Earl Dumler, Jim Horn, Doug Strawn: woodwinds
• Gayle Levant: harp

Notes

The CD is housed in a mini gate-fold card sleeve replica of the original LP sleeve with original obi and booklet. Housed together with another booklet in a box case with obi.

On the front of the box:
Genuine Platinum SHM for audiophile only
Pure platinum reflective coating • SHM body • Turquoise blue label • High resolution cutting

A&M Records USM Japan, a Universal Music Company.

Barcode and Other Identifiers

Barcode: 4 988005 799395
Rights Society: JASRAC
Matrix / Runout (Mirror band): UICY-40046 H1T IFPI L236
Matrix / Runout (Mirror band x 4): [Universal Music logo]
Matrix / Runout (Mould/hub x 4): PLATINUM SHM
Mastering SID Code: IFPI L236
Mould SID Code: IFPI 4011

Exact Audio Copy V1.0 beta 3 from 29. August 2011

EAC extraction logfile from 9. November 2014, 18:07

The Carpenters / The Singles 1969-1973 PT-SHM

Used drive : PLEXTOR BD-R PX-B950SA Adapter: 6 ID: 0

Read mode : Secure
Utilize accurate stream : Yes
Defeat audio cache : Yes
Make use of C2 pointers : No

Read offset correction : 6
Overread into Lead-In and Lead-Out : No
Fill up missing offset samples with silence : Yes
Delete leading and trailing silent blocks : No
Null samples used in CRC calculations : Yes
Used interface : Native Win32 interface for Win NT & 2000

Used output format : Internal WAV Routines
Sample format : 44.100 Hz; 16 Bit; Stereo


TOC of the extracted CD

Track | Start | Length | Start sector | End sector
––––––––––––––––––––––––––––-
1 | 0:00.00 | 4:09.50 | 0 | 18724
2 | 4:09.50 | 2:58.10 | 18725 | 32084
3 | 7:07.60 | 4:09.25 | 32085 | 50784
4 | 11:17.10 | 3:45.37 | 50785 | 67696
5 | 15:02.47 | 3:25.53 | 67697 | 83124
6 | 18:28.25 | 3:59.22 | 83125 | 101071
7 | 22:27.47 | 3:57.73 | 101072 | 118919
8 | 26:25.45 | 2:55.57 | 118920 | 132101
9 | 29:21.27 | 3:17.23 | 132102 | 146899
10 | 32:38.50 | 2:34.55 | 146900 | 158504
11 | 35:13.30 | 2:48.22 | 158505 | 171126
12 | 38:01.52 | 3:44.45 | 171127 | 187971


Range status and errors

Selected range

Filename C:\Users\Meijin\Desktop\ALLexxess\Carpenters\1973 The Singles 1969-1973 (Mini LP PT-SHM Universal Japan 2014)\The Carpenters - The Singles 1969-1973 PT-SHM.wav

Peak level 99.0 %
Extraction speed 6.6 X
Range quality 99.9 %
Test CRC 45FE8B80
Copy CRC 45FE8B80
Copy OK

No errors occurred


AccurateRip summary

Track 1 accurately ripped (confidence 1) [5E8CFF57] (AR v2)
Track 2 accurately ripped (confidence 1) [5CB0CBA0] (AR v2)
Track 3 accurately ripped (confidence 1) [C1FC756C] (AR v2)
Track 4 accurately ripped (confidence 1) [502EC874] (AR v2)
Track 5 accurately ripped (confidence 1) [A67472A7] (AR v2)
Track 6 accurately ripped (confidence 1) [2B6CE928] (AR v2)
Track 7 accurately ripped (confidence 1) [658EE4C3] (AR v2)
Track 8 accurately ripped (confidence 1) [FB5E84A0] (AR v2)
Track 9 accurately ripped (confidence 1) [75067138] (AR v2)
Track 10 accurately ripped (confidence 1) [82E575BA] (AR v2)
Track 11 accurately ripped (confidence 1) [D5572735] (AR v2)
Track 12 accurately ripped (confidence 1) [92A46F76] (AR v2)

All tracks accurately ripped

End of status report

==== Log checksum B287752686C343D4A53ACE1CED3436FFBCD2EB9A4BBA840BF466ED630524F6AB ====


Many thanks to the original uploader: ALLexxess